TORRENTS43.XYZ

Скачать Аннигиляция / Annihilation (2018) WEB-DL [H.264/720p-LQ] [MVO]


Аннигиляция / Annihilation (2018) WEB-DL
Производство: Великобритания / DNA Films, Paramount Pictures, Scott Rudin Productions, Skydance Media
Жанр: Фантастика, фэнтези, ужасы, триллер, драма, детектив, приключения

Режиссер: Алекс Гарленд
Актеры: Джон Шваб, Кола Бокинни, Кристал Кларк, Тесса Томпсон, Соноя Мидзуно, Ричард Кларк, Мэттью Симпсон, Бернард Коллако, Дженнифер Джейсон Ли, Дэвид Гяси, Эдвард Мэннеринг, Оскар Айзек, Аннари Бур, Анджела Холмс, Натали Портман, Джина Родригез, Тува Новотны, Космо Джарвис, Кумуд Пант, Майрид Армстронг, Джош Дэнфорд

Описание:
Главная героиня, биолог, отправляется в опасную экспедицию в таинственное место, где ничто не подчиняется законам природы.


Рейтинг MPAA: R (лицам до 17 лет обязательно присутствие взрослого)
Дата мировой премьеры: 23 февраля 2018,

Продолжительность: 01:55:29
Качество видео: WEB-DL
Перевод: Многоголосый закадровый, профессиональный - NewStudio
Субтитры: отсутствуют

Присутствует ненормативная лексика

Видео: AVC/H.264, 1280x720 (16:9), ~1960 kbps
Аудио 1: AC3, 48,0 kHz, 6 ch, 384 kbps - русский, многоголосый, закадровый
Аудио 2: AC3, 48,0 kHz, 6 ch, 384 kbps - английский

Mediainfo:


Общее
Уникальный идентификатор : 147607634096189376107326942344984276796 (0x6F0C323D9C451A074C02EB59ED9E2F3C)
Полное имя : F:\Torrents\Annihilation.2018.WEBDL.720p.NewStudio.TV.mkv
Формат : Matroska
Версия формата : Version 4 / Version 2
Размер файла : 2,18 Гбайт
Продолжительность : 1 ч. 55 м.
Режим общего битрейта : Переменный
Общий поток : 2699 Кбит/сек
Дата кодирования : UTC 2018-03-27 08:12:56
Программа кодирования : mkvmerge v21.0.0 ('Tardigrades Will Inherit The Earth') 64-bit
Библиотека кодирования : libebml v1.3.5 + libmatroska v1.4.8

Видео
Идентификатор : 2
Формат : AVC
Формат/Информация : Advanced Video Codec
Профиль формата : Main@L3.1
Настройки формата : CABAC / 3 Ref Frames
Параметр CABAC формата : Да
Параметр RefFrames формата : 3 кадра
Идентификатор кодека : V_MPEG4/ISO/AVC
Продолжительность : 1 ч. 55 м.
Вид битрейта : Переменный
Битрейт : 1960 Кбит/сек
Максимальный битрейт : 2940 Кбит/сек
Ширина : 1280 пикселей
Высота : 720 пикселей
Соотношение сторон : 16:9
Режим частоты кадров : Постоянный
Частота кадров : 23,976 (24000/1001) кадра/сек
Цветовое пространство : YUV
Субдискретизация насыщенности : 4:2:0
Битовая глубина : 8 бит
Тип развёртки : Прогрессивная
Бит/(Пиксели*Кадры) : 0.089
Размер потока : 1,57 Гбайт (72%)
Библиотека кодирования : x264 core 148 r2715 7e75228
Настройки программы : cabac=1 / ref=3 / deblock=1:0:0 / analyse=0x1:0x111 / me=umh / subme=10 / psy=1 / psy_rd=1.00:0.00 / mixed_ref=1 / me_range=24 / chroma_me=1 / trellis=2 / 8x8dct=0 / cqm=0 / deadzone=21,11 / fast_pskip=1 / chroma_qp_offset=-2 / threads=8 / lookahead_threads=1 / sliced_threads=0 / nr=0 / decimate=1 / interlaced=0 / bluray_compat=0 / stitchable=1 / constrained_intra=0 / bframes=2 / b_pyramid=0 / b_adapt=2 / b_bias=0 / direct=3 / weightb=1 / open_gop=0 / weightp=2 / keyint=48 / keyint_min=25 / scenecut=0 / intra_refresh=0 / rc_lookahead=48 / rc=2pass / mbtree=1 / bitrate=1960 / ratetol=1.0 / qcomp=0.50 / qpmin=6 / qpmax=51 / qpstep=4 / cplxblur=20.0 / qblur=0.5 / vbv_maxrate=2940 / vbv_bufsize=3920 / nal_hrd=vbr / filler=0 / ip_ratio=1.40 / aq=1:1.00
Default : Да
Forced : Нет

Аудио #1
Идентификатор : 1
Формат : AC-3
Формат/Информация : Audio Coding 3
Идентификатор кодека : A_AC3
Продолжительность : 1 ч. 50 м.
Вид битрейта : Постоянный
Битрейт : 384 Кбит/сек
Каналы : 6 каналов
Расположение каналов : Front: L C R, Side: L R, LFE
Частота : 48,0 КГц
Частота кадров : 31,250 кадров/сек (1536 SPF)
Битовая глубина : 16 бит
Метод сжатия : С потерями
Размер потока : 303 Мбайт (14%)
Язык : Russian
ServiceKind/String : Complete Main
Default : Да
Forced : Нет

Аудио #2
Идентификатор : 3
Формат : AC-3
Формат/Информация : Audio Coding 3
Идентификатор кодека : A_AC3
Продолжительность : 1 ч. 55 м.
Вид битрейта : Постоянный
Битрейт : 384 Кбит/сек
Каналы : 6 каналов
Расположение каналов : Front: L C R, Side: L R, LFE
Частота : 48,0 КГц
Частота кадров : 31,250 кадров/сек (1536 SPF)
Битовая глубина : 16 бит
Метод сжатия : С потерями
Размер потока : 317 Мбайт (14%)
Заголовок : English
Язык : English
ServiceKind/String : Complete Main
Default : Нет
Forced : Нет

Подготовка релиза:

Озвучка: Многоголосое профессиональное закадровое озвучание (NewStudio)
Перевод: Александра Цернант
Постер: Vortex
Удаление рекламы: messer20080
Скриншоты:


Все одноименные релизы в Клубе

Смотреть Online

http://moonwalk.cc/video/d4740e76599a17db/iframe
Детали торрента:
Название:Аннигиляция / Annihilation (2018) WEB-DL [H.264/720p-LQ] [MVO]
Дата добавления:27 Мар 2018 16:36:48
Размер:2,18 GB
Раздают:87
Качают:0
Форум:Зарубежные Новинки (HD*Rip/LQ, DVDRip)

All rights reserved © 2015-2018