TORRENTS43.XYZ

Скачать Переправа / The Crossing (2018) WEB-DL [H.264/1080-LQ] (сезон 1, серии 1-11 из 11) OMSKBIRD [AD]


Переправа / The Crossing (2018) WEB-DL [H.264/1080-LQ] (сезон 1, серии 1-11 из 11) OMSKBIRD
Производство: США / Dworkin/Beattie, Brick Moon Podcasting, ABC Studios
Жанр: фантастика, драма, приключения

Режиссер: Роб Боумен, Кен Джиротти, Джеффри Дж. Хант
Актеры: Стив Зан, Кристиан Майкл Купер, Райан МакДонелл, Сандрин Холт, Рик Гомес, Грант Уитни Харви, Келли Миссал, Симона Кэссел и др.

Описание:
Волны выбрасывают на промозглый орегонский пляж тела непонятно откуда взявшихся беженцев. Все они прибыли из будущего, в котором сейчас вовсю разворачивается очередная мировая война. В том, чем грозит нашествие, пытается разобраться местный шериф


Дата мировой премьеры: 20 марта 2018
Возраст:18+ (зрителям, достигшим 18 лет)

Продолжительность: ~00:44:00 серия
Качество видео: WEB-DL
Перевод: Многоголосый закадровый, профессиональный | OMSKBIRD
Субтитры: английские
Реклама: присутствуют аудио вставки рекламы

Видео: AVC/H.264, 1920х1080 (16:9), ~10 Мbps
Аудио # 1: AC-3, 6 ch, 384 kbps, CBR - русский, многоголосый закадровый
Аудио # 2: AC-3, 6 ch, 384 kbps, CBR - английский

Mediainfo:


General
Unique ID : 199331507507818582934784192596549887958 (0x95F5DA173A1BCF729D52F8868170E7D6)
Complete name : H:\Мои Документы\Видео\РАЗДАЧИ\ПЕРЕПРАВА\The Crossing S01 WEB-DL 1080p (OMSKBIRD)\The Crossing S01E01 WEB-DL 1080p (OMSKBIRD).mkv
Format : Matroska
Format version : Version 2
File size : 3.37 GiB
Duration : 42 min 44 s
Overall bit rate mode : Variable
Overall bit rate : 11.3 Mb/s
Encoded date : UTC 2018-03-21 17:52:45
Writing application : mkvmerge v4.0.0 ('The Stars were mine') сборка от Jun 6 2010 16:18:42
Writing library : libebml v1.0.0 + libmatroska v1.0.0

Video
ID : 1
Format : AVC
Format/Info : Advanced Video Codec
Format profile : High@L4
Format settings, CABAC : Yes
Format settings, RefFrames : 4 frames
Codec ID : V_MPEG4/ISO/AVC
Duration : 42 min 44 s
Bit rate mode : Variable
Bit rate : 10.3 Mb/s
Maximum bit rate : 15.0 Mb/s
Width : 1 920 pixels
Height : 1 080 pixels
Display aspect ratio : 16:9
Frame rate mode : Constant
Frame rate : 23.976 (24000/1001) FPS
Color space : YUV
Chroma subsampling : 4:2:0
Bit depth : 8 bits
Scan type : Progressive
Bits/(Pixel*Frame) : 0.207
Stream size : 3.07 GiB (91%)
Default : No
Forced : No
Color range : Limited
Color primaries : BT.709
Transfer characteristics : BT.709
Matrix coefficients : BT.709

Audio #1
ID : 2
Format : AC-3
Format/Info : Audio Coding 3
Format settings, Endianness : Big
Codec ID : A_AC3
Duration : 42 min 44 s
Bit rate mode : Constant
Bit rate : 384 kb/s
Channel(s) : 6 channels
Channel positions : Front: L C R, Side: L R, LFE
Sampling rate : 48.0 kHz
Frame rate : 31.250 FPS (1536 SPF)
Bit depth : 16 bits
Compression mode : Lossy
Stream size : 117 MiB (3%)
Language : Russian
Service kind : Complete Main
Default : Yes
Forced : No

Audio #2
ID : 3
Format : AC-3
Format/Info : Audio Coding 3
Format settings, Endianness : Big
Codec ID : A_AC3
Duration : 42 min 44 s
Bit rate mode : Constant
Bit rate : 384 kb/s
Channel(s) : 6 channels
Channel positions : Front: L C R, Side: L R, LFE
Sampling rate : 48.0 kHz
Frame rate : 31.250 FPS (1536 SPF)
Bit depth : 16 bits
Compression mode : Lossy
Stream size : 117 MiB (3%)
Language : English
Service kind : Complete Main
Default : No
Forced : No

Text
ID : 4
Format : UTF-8
Codec ID : S_TEXT/UTF8
Codec ID/Info : UTF-8 Plain Text
Title : SDH
Language : English
Default : No
Forced : No
Скриншоты:



Все одноименные релизы в Клубе

Смотреть Online

http://moonwalk.cc/video/0e9f6ce4c2398780/iframe
Детали торрента:
Название:Переправа / The Crossing (2018) WEB-DL [H.264/1080-LQ] (сезон 1, серии 1-11 из 11) OMSKBIRD [AD]
Дата добавления:11 Июн 2018 17:25:29
Размер:39,5 GB
Раздают:21
Качают:8
Форум:Зарубежные сериалы

All rights reserved © 2015-2018