TORRENTS43.XYZ

Скачать Квартирник на НТВ у Маргулиса. Александр Маршал (03.17.2018) WEBRip [H.264/1080p-LQ]


Квартирник на НТВ у Маргулиса. Александр Маршал (03.17.2018) WEBRip [H.264/1080p-LQ]
Производство: НТВ
Жанр: Концерт

Описание:
В гости к Евгению Маргулису пришел Александр Маршал. Советский и российский рок-музыкант, певец, бас-гитарист и автор песен вспомнил о своем отце, который пел частушки и во время их исполнения выгонял Александра из комнаты. Музыкант рассказал о начале карьеры и о том, как учился в военно-летном училище, где создал свой первый вокально-инструментальный ансамбль.
Александр Маршал исполнил полюбившиеся многим песни, например, Moscow calling и рассказал историю записи пластинки с этой композицией. Также музыкант спел обращение к Владимиру Высоцкому, которому в этом году исполнилось бы 80 лет.

Релиз от: Алехаndr
Продолжительность: 00:55:15
Качество видео: WEBRip
Субтитры: Отсутствуют

Видео: AVC/H.264, 1920x1080 (16:9), ~1945 Kbps
Аудио: AC3, 2 ch, 192 Kbps

Mediainfo:


Общее
Уникальный идентификатор : 64370915566922739977839034711046394466 (0x306D632B959E607473840AA8D8A89262)
Полное имя : G:\Квартирник НТВ у Маргулиса (Александр Маршал).by.Алехаndr.mkv
Формат : Matroska
Версия формата : Version 4 / Version 2
Размер файла : 861 Мбайт
Продолжительность : 55 м. 15 с.
Общий поток : 2179 Кбит/сек
Программа кодирования : Lavf57.71.100
Библиотека кодирования : Lavf57.71.100
ErrorDetectionType : Per level 1

Видео
Идентификатор : 1
Формат : AVC
Формат/Информация : Advanced Video Codec
Профиль формата : High@L4
Настройки формата : CABAC / 3 Ref Frames
Параметр CABAC формата : Да
Параметр RefFrames формата : 3 кадра
Идентификатор кодека : V_MPEG4/ISO/AVC
Продолжительность : 55 м. 15 с.
Битрейт : 1944 Кбит/сек
Ширина : 1920 пикселей
Высота : 1080 пикселей
Соотношение сторон : 16:9
Режим частоты кадров : Постоянный
Частота кадров : 25,000 кадров/сек
Цветовое пространство : YUV
Субдискретизация насыщенности : 4:2:0
Битовая глубина : 8 бит
Тип развёртки : Прогрессивная
Бит/(Пиксели*Кадры) : 0.037
Размер потока : 768 Мбайт (89%)
Default : Да
Forced : Нет
Цветовой диапазон : Limited
Основные цвета : BT.709
Характеристики трансфера : BT.709
Коэффициенты матрицы : BT.709

Аудио
Идентификатор : 2
Формат : AC-3
Формат/Информация : Audio Coding 3
Идентификатор кодека : A_AC3
Продолжительность : 55 м. 15 с.
Вид битрейта : Постоянный
Битрейт : 192 Кбит/сек
Каналы : 2 канала
Расположение каналов : Front: L R
Частота : 44,1 КГц
Частота кадров : 28,711 кадров/сек (1536 SPF)
Битовая глубина : 16 бит
Метод сжатия : С потерями
Размер потока : 75,9 Мбайт (9%)
Язык : Russian
ServiceKind/String : Complete Main
Default : Да
Forced : Нет
Скриншоты:


Все релизы "Квартирник на НТВ у Маргулиса" в Клубе
Детали торрента:
Название:Квартирник на НТВ у Маргулиса. Александр Маршал (03.17.2018) WEBRip [H.264/1080p-LQ]
Дата добавления:18 Мар 2018 10:28:02
Размер:861 MB
Раздают:4
Качают:0
Форум:Концерты

All rights reserved © 2015-2018