TORRENTS43.XYZ

Скачать Квартирник на НТВ у Маргулиса. The Hatters (03.03.2018) WEBRip [H.264/1080p-LQ]


Квартирник на НТВ у Маргулиса. The Hatters (03.03.2018) WEBRip [H.264/1080p-LQ]
Производство: НТВ
Жанр: Концерт

Описание:
В гости к ведущему Евгению Маргулису пришла фолк-рок группа «The Hatters». «Шляпники» были основаны в 2016 году в Санкт-Петербурге и уже успели завоевать популярность.
Юрий Музыченко рассказал, что основной состав своего музыкального коллектива сформировал из театра «Лицедеи». Музыканты поделились историей про первый тур и объяснили, зачем тромбонисту Вадиму Рулёву для участия там пришлось подделать справку о переломе руки. Также «Шляпники» вспомнили, как они выступали на разогреве на концерте Эмира Кустурицы и Горана Бреговича, и исполнили свои лучшие композиции специально для гостей вечеринки.

Релиз от: Алехаndr
Продолжительность: 00:55:00
Качество видео: WEBRip
Субтитры: Отсутствуют

Видео: AVC/H.264, 1920x1080 (16:9), ~2780 Kbps
Аудио: AC3, 2 ch, 192 Kbps

Mediainfo:


Общее
Уникальный идентификатор : 69207331322624458756424668524057358878 (0x3410D8E08FC0D6B95990126B694A721E)
Полное имя : G:\Квартирник НТВ у Маргулиса (The Hatters).by.Алехаndr.mkv
Формат : Matroska
Версия формата : Version 4 / Version 2
Размер файла : 1,14 Гбайт
Продолжительность : 55 м. 0 с.
Общий поток : 2975 Кбит/сек
Дата кодирования : UTC 2018-03-04 05:48:10
Программа кодирования : mkvmerge v21.0.0 ('Tardigrades Will Inherit The Earth') 64-bit
Библиотека кодирования : libebml v1.3.5 + libmatroska v1.4.8 / Lavf57.71.100

Видео
Идентификатор : 1
Формат : AVC
Формат/Информация : Advanced Video Codec
Профиль формата : High@L4
Настройки формата : CABAC / 3 Ref Frames
Параметр CABAC формата : Да
Параметр RefFrames формата : 3 кадра
Идентификатор кодека : V_MPEG4/ISO/AVC
Продолжительность : 55 м. 0 с.
Битрейт : 2781 Кбит/сек
Ширина : 1920 пикселей
Высота : 1080 пикселей
Соотношение сторон : 16:9
Режим частоты кадров : Постоянный
Частота кадров : 25,000 кадров/сек
Цветовое пространство : YUV
Субдискретизация насыщенности : 4:2:0
Битовая глубина : 8 бит
Тип развёртки : Прогрессивная
Бит/(Пиксели*Кадры) : 0.054
Размер потока : 1,07 Гбайт (93%)
Default : Да
Forced : Нет
Цветовой диапазон : Limited
Основные цвета : BT.709
Характеристики трансфера : BT.709
Коэффициенты матрицы : BT.709

Аудио
Идентификатор : 2
Формат : AC-3
Формат/Информация : Audio Coding 3
Идентификатор кодека : A_AC3
Продолжительность : 55 м. 0 с.
Вид битрейта : Постоянный
Битрейт : 192 Кбит/сек
Каналы : 2 канала
Расположение каналов : Front: L R
Частота : 44,1 КГц
Частота кадров : 28,711 кадров/сек (1536 SPF)
Битовая глубина : 16 бит
Метод сжатия : С потерями
Размер потока : 75,6 Мбайт (6%)
Язык : Russian
ServiceKind/String : Complete Main
Default : Да
Forced : Нет
Скриншоты:


Все релизы "Квартирник на НТВ у Маргулиса" в Клубе
Детали торрента:
Название:Квартирник на НТВ у Маргулиса. The Hatters (03.03.2018) WEBRip [H.264/1080p-LQ]
Дата добавления:04 Мар 2018 08:58:01
Размер:1,14 GB
Раздают:3
Качают:0
Форум:Концерты

All rights reserved © 2015-2018