TORRENTS43.XYZ

Скачать Праздничный концерт ко Дню защитника Отечества (23.02.2018) HDTV [H.264/1080i-LQ]


Праздничный концерт ко Дню защитника Отечества (23.02.2018) HDTV
Телекомпания: Россия 1 HD
Жанр: ТВ-шоу, Концерт

Ведущие: Анастасия Чернобровина, Федор Бондарчук

Описание:
День защитника Отечества – праздник настоящих мужчин. 23 февраля мы не только вспоминаем героические подвиги предков, но и отдаем дань мужеству и благородству любимых представителей сильного пола. Претерпевший с течением времени множество изменений, этот праздник сохранил свое первоначальное патриотическое настроение, ставшее основой единения граждан разных возрастов и социального положения.

Продолжительность: 01:37:33
Качество видео: HDTV

Видео: AVC/H.264, 1920x1080 (16:9), ~14.3 Mbps
Аудио: AAC, 2 ch, 510 Kbps

Mediainfo:


General
Unique ID : 92205507761473319056491466120366580649 (0x455E22851AF27298F5C5A27D0BD6E3A9)
Complete name : D:\Film\Праздничный концерт ко Дню защитника Отечества 2018.mkv
Format : Matroska
Format version : Version 4 / Version 2
File size : 10.1 GiB
Duration : 1 h 37 min
Overall bit rate : 14.9 Mb/s
Encoded date : UTC 2018-02-25 23:32:35
Writing application : mkvmerge v21.0.0 ('Tardigrades Will Inherit The Earth') 64-bit
Writing library : libebml v1.3.5 + libmatroska v1.4.8
Cover : Yes
Attachments : cover.png

Video
ID : 1
Format : AVC
Format/Info : Advanced Video Codec
Format profile : High@L4
Format settings : CABAC / 4 Ref Frames
Format settings, CABAC : Yes
Format settings, RefFrames : 4 frames
Codec ID : V_MPEG4/ISO/AVC
Duration : 1 h 37 min
Bit rate : 14.3 Mb/s
Width : 1 920 pixels
Height : 1 080 pixels
Display aspect ratio : 16:9
Frame rate mode : Variable
Frame rate : 50.000 FPS
Original frame rate : 25.000 FPS
Standard : Component
Color space : YUV
Chroma subsampling : 4:2:0
Bit depth : 8 bits
Scan type : Interlaced
Scan type, store method : Separated fields
Scan order : Top Field First
Bits/(Pixel*Frame) : 0.138
Stream size : 9.77 GiB (97%)
Language : Russian
Default : Yes
Forced : No
Color range : Limited
Color primaries : BT.709
Transfer characteristics : BT.709
Matrix coefficients : BT.709

Audio
ID : 2
Format : AAC
Format/Info : Advanced Audio Codec
Format profile : LC
Codec ID : A_AAC-2
Duration : 1 h 37 min
Bit rate : 510 kb/s
Channel(s) : 2 channels
Channel positions : Front: L R
Sampling rate : 44.1 kHz
Frame rate : 43.066 FPS (1024 SPF)
Compression mode : Lossy
Stream size : 356 MiB (3%)
Language : Russian
Default : Yes
Forced : No

Треклист:

1. Александр Маршал, Денис Майданов / Академический ансамбль песни и пляски Российской Армии им. А.В.Александрова - "Старый марш", "Гори, гори, моя звезда"
2. Хор и танцевальная группа Академического ансамбля песни пляски им. А.В.Александрова - "В песнях останемся мы"
3. Владимир Конкин - монолог "Какая вежливая тишина!"
4. Государственный академический ансамбля народного танца им. Игоря Моисеева - хореографическая картина "Партизаны"
5. Николай Расторгуев и группа "Любе" - "Дорога"
6. Леонид Агутин - "Песня о далекой Родине"
7. Никита Михалков - "Утомленное солнце", "Я знаю, не будет иначе..."
8. Государственный академический русский народный хор им. М.Е.Пятницкого - "На Мамаевом Кургане тишина"
9. Александра Пахмутова, Сергей Волчков / Хор Академического ансамбля песни пляски Российской Армии им. А.В.Александрова - "Горячий снег"
10. Государственный академический Кубанский казачий хор - "На поле танки грохотали"
11. Владимир Меньшов - монолог генерала
12. Академический ансамбль песни и пляски Российской Армии им. А.В.Александрова / Солист Сергей Кузнецов - "Ехал я из Берлина"
13. Олег Газманов / Хор ансамбля им. А.В.Александрова, Всероссийское военно-патриотическое общественное движение "Юнармия" - "Бессмертный полк"
14. Полина Гагарина - "Кукушка" (В.Цой)
15. Денис Майданов / Балет Аллы Духовой "Тодес" - "Это мой бой"
16. Лев Лещенко, Зара - "Надежда"
17. Сирийский национальный оркестр арабской музыки под руководством Аднана Фатхала / Солистка Линда Бетар / Танцевальный коллектив "Душа" - Попурри на темы сирийских народных песен
18. Центральный ансамбля Национального военно-патриотического центра Вооруженных Сил Республики Казахстан / Солист Даурен Толеубаев "Моя земля"
19. Академический ансамбль песни и пляски Российской Армии им. А.В.Александрова / Солист Вадим Ананьев - "Калинка"
20. Иосиф Кобзон, специальные корреспонденты ВГТРК Евгений Поддубный и Александр Сладков - "Песенка военных корреспондентов"
21. Тамара Гвердцители / Группа "Пятеро" - "Есть только миг"
22. Александр Коган - "От героев былых времен"
23. Александр Маршал / Академический ансамбль песни и пляски Российской Армии им. А.В.Александрова - "Красная армия всех сильней"
24. Академический ансамбль песни и пляски Российской Армии им. А.В.Александрова - "Несокрушимая и легендарная"
Скриншоты:



Все одноименные релизы в Клубе
Детали торрента:
Название:Праздничный концерт ко Дню защитника Отечества (23.02.2018) HDTV [H.264/1080i-LQ]
Дата добавления:26 Фев 2018 11:09:25
Размер:10,1 GB
Раздают:2
Качают:0
Форум:Концерты

All rights reserved © 2015-2018