TORRENTS43.XYZ

Скачать Fate/Extra: Last Encore / Судьба/Экстра. На бис [2018, TV, 4 из 10] WEB-DL 720p Raw+Rus


Fate/Extra: Last Encore / Судьба/Экстра. На бис
Жанр: приключения, фэнтези
Тип: TV-сериал
Продолжительность: 4 из 10 эпизодов по 25 минут
Выпуск: c 28.01.2018 по 01.04.2018
Автор: Насу Киноко
Режиссер: Симбо Акиюки
Производство: SHAFT
Информационные ссылки: AniDB || World Art || MAL || ANN
Релиз подготовлен студией Kansai
  • Тип озвучки: Многоголосая, закадровая

Описание:
События очередного сезона Судьбы будут происходить параллельно вселенной "Судьба: Ночь схватки”. Конечно же, всё снова крутится вокруг Святого Грааля, способного исполнить любое желание, но для этого сначала нужно победить. Победу придётся одержать в войне, происходящей в виртуальном мире, нужно стать первым среди 128 участников этой битвы. Проигрыш карается смертью, как в виртуальном мире, так и в реальном, поэтому ставки очень высоки. Но и главный приз весьма соблазнителен.

Главный герой этого аниме, Хакуно Кишинами, неожиданно для самого себя оказывается в неизвестном виртуальном мире. Он не понимает, что происходит вокруг, но уже втянут в круговорот событий, происходящих здесь. Но ясно одно - ему нужно выжить, причём любой ценой. Понятие друзей и врагов быстро стирается, Хакуно должен противостоять всем подряд. Но, в отличие от других претендентов на победу, яростно желающих заполучить себе Святой Грааль, у Хакуно несколько другие цели. Он просто хочет жить, а также понять, кто он такой на самом деле.
Качество: WEB-DLRip | Энкод: NetFlix
Язык озвучки: Японский и Русский
Формат: MKV
Видео: x264, 1280x720, ~2 870 kbps, 23.976 fps
Аудио: E-AC3, 128 kbps, 48.0 kHz, 2 ch
Аудио: AAC, 192 kbps, 48.0 kHz, 2 ch

Список эпизодов:

Episode 1
Episode 2
Episode 3
Episode 4

Тех. параметры:

General
Unique ID : 16797151850206667648798547970857570042 (0xCA303869E782C6AC8B8A23069130EFA)
Complete name : Fate EXTRA Last Encore [KANSAI]\[KANSAI] Fate EXTRA Last Encore - 01 [720p].mkv
Format : Matroska
Format version : Version 4 / Version 2
File size : 538 MiB
Duration : 23 min 42 s
Overall bit rate mode : Variable
Overall bit rate : 3 176 kb/s
Movie name : Fate/EXTRA Last Encore
Encoded date : UTC 2018-02-13 14:24:50
Writing application : mkvmerge v20.0.0 ('I Am The Sun') 64-bit
Writing library : libebml v1.3.5 + libmatroska v1.4.8

Video
ID : 1
Format : AVC
Format/Info : Advanced Video Codec
Format profile : Main@L3.1
Format settings : CABAC / 3 Ref Frames
Format settings, CABAC : Yes
Format settings, ReFrames : 3 frames
Codec ID : V_MPEG4/ISO/AVC
Duration : 23 min 41 s
Bit rate mode : Variable
Bit rate : 2 870 kb/s
Maximum bit rate : 4 305 kb/s
Width : 1 280 pixels
Height : 720 pixels
Display aspect ratio : 16:9
Frame rate mode : Constant
Frame rate : 23.976 (24000/1001) FPS
Color space : YUV
Chroma subsampling : 4:2:0
Bit depth : 8 bits
Scan type : Progressive
Bits/(Pixel*Frame) : 0.130
Stream size : 484 MiB (90%)
Writing library : x264 core 148 r2715 7e75228
Encoding settings : cabac=1 / ref=3 / deblock=1:0:0 / analyse=0x1:0x111 / me=umh / subme=10 / psy=1 / psy_rd=1.00:0.00 / mixed_ref=1 / me_range=24 / chroma_me=1 / trellis=2 / 8x8dct=0 / cqm=0 / deadzone=21,11 / fast_pskip=1 / chroma_qp_offset=-2 / threads=8 / lookahead_threads=1 / sliced_threads=0 / nr=0 / decimate=1 / interlaced=0 / bluray_compat=0 / stitchable=1 / constrained_intra=0 / bframes=2 / b_pyramid=0 / b_adapt=2 / b_bias=0 / direct=3 / weightb=1 / open_gop=0 / weightp=2 / keyint=48 / keyint_min=25 / scenecut=0 / intra_refresh=0 / rc_lookahead=48 / rc=2pass / mbtree=1 / bitrate=2870 / ratetol=1.0 / qcomp=0.50 / qpmin=6 / qpmax=51 / qpstep=4 / cplxblur=20.0 / qblur=0.5 / vbv_maxrate=4305 / vbv_bufsize=5740 / nal_hrd=vbr / filler=0 / ip_ratio=1.40 / aq=1:1.00
Default : Yes
Forced : No

Audio #1
ID : 2
Format : AAC
Format/Info : Advanced Audio Codec
Format profile : LC
Codec ID : A_AAC-2
Duration : 23 min 42 s
Bit rate : 192 kb/s
Channel(s) : 2 channels
Channel positions : Front: L R
Sampling rate : 48.0 kHz
Frame rate : 46.875 FPS (1024 SPF)
Compression mode : Lossy
Stream size : 32.1 MiB (6%)
Language : Russian
Default : Yes
Forced : No

Audio #2
ID : 3
Format : E-AC-3
Format/Info : Enhanced Audio Coding 3
Codec ID : A_EAC3
Duration : 23 min 41 s
Bit rate mode : Constant
Bit rate : 128 kb/s
Channel(s) : 2 channels
Channel positions : Front: L R
Sampling rate : 48.0 kHz
Frame rate : 187.500 FPS (256 SPF)
Compression mode : Lossy
Stream size : 21.7 MiB (4%)
Language : Japanese
Service kind : Complete Main
Default : No
Forced : No


Смотреть Online

http://moonwalk.cc/video/4c05cf5ef3b49ec0/iframe
Детали торрента:
Название:Fate/Extra: Last Encore / Судьба/Экстра. На бис [2018, TV, 4 из 10] WEB-DL 720p Raw+Rus
Дата добавления:13 Мар 2018 15:25:55
Размер:2,34 GB
Раздают:1
Качают:0
Форум:Онгоинги с озвучкой

All rights reserved © 2015-2018