TORRENTS43.XYZ

Скачать Квартирник на НТВ у Маргулиса. Круиз (02.03.2018) WEBRip [H.264/1080p-LQ]


Квартирник на НТВ у Маргулиса. Круиз (02.03.2018) WEBRip [H.264/1080p-LQ]
Производство: НТВ
Жанр: Концерт

Описание:
«Круиз» — советская и российская рок-группа, образованная в 1980 году. Их участие в закрытом «Квартирнике» — бесценный подарок для всех фанатов и не только. Они представили свои лучшие композиции специально для гостей вечеринки и телезрителей НТВ. Музыканты вспомнили о первых выступлениях и о своем пути от ВИА «Молодые голоса» к «Круизу». В гостях у «Квартирника» также побывал Бари Каримович Алибасов и экс-солист Bad boys blue Кевин Маккой, рассказавший о первой встрече с рок-коллективом.

Релиз от: Алехаndr
Продолжительность: 01:03:50
Качество видео: WEBRip
Субтитры: Отсутствуют

Видео: AVC/H.264, 1920x1080 (16:9), ~2245 Kbps
Аудио: AC3, 2 ch, 192 Kbps

Mediainfo:


Общее
Уникальный идентификатор : 61574866101532641484438413257134956754 (0x2E52E349C9986DF71A0B66265C09E0D2)
Полное имя : G:\Квартирник НТВ у Маргулиса (Круиз). by.Алехаndr.mkv
Формат : Matroska
Версия формата : Version 4 / Version 2
Размер файла : 1,09 Гбайт
Продолжительность : 1 ч. 3 м.
Общий поток : 2438 Кбит/сек
Дата кодирования : UTC 2018-02-04 06:58:20
Программа кодирования : mkvmerge v20.0.0 ('I Am The Sun') 64-bit
Библиотека кодирования : libebml v1.3.5 + libmatroska v1.4.8 / Lavf57.71.100

Видео
Идентификатор : 1
Формат : AVC
Формат/Информация : Advanced Video Codec
Профиль формата : High@L4
Настройки формата : CABAC / 3 Ref Frames
Параметр CABAC формата : Да
Параметр RefFrames формата : 3 кадра
Идентификатор кодека : V_MPEG4/ISO/AVC
Продолжительность : 1 ч. 3 м.
Битрейт : 2244 Кбит/сек
Ширина : 1920 пикселей
Высота : 1080 пикселей
Соотношение сторон : 16:9
Режим частоты кадров : Постоянный
Частота кадров : 25,000 кадров/сек
Цветовое пространство : YUV
Субдискретизация насыщенности : 4:2:0
Битовая глубина : 8 бит
Тип развёртки : Прогрессивная
Бит/(Пиксели*Кадры) : 0.043
Размер потока : 1,00 Гбайт (92%)
Default : Да
Forced : Нет
Цветовой диапазон : Limited
Основные цвета : BT.709
Характеристики трансфера : BT.709
Коэффициенты матрицы : BT.709

Аудио
Идентификатор : 2
Формат : AC-3
Формат/Информация : Audio Coding 3
Идентификатор кодека : A_AC3
Продолжительность : 1 ч. 3 м.
Вид битрейта : Постоянный
Битрейт : 192 Кбит/сек
Каналы : 2 канала
Расположение каналов : Front: L R
Частота : 44,1 КГц
Частота кадров : 28,711 кадров/сек (1536 SPF)
Битовая глубина : 16 бит
Метод сжатия : С потерями
Задержка видео : -40 мс.
Размер потока : 87,7 Мбайт (8%)
Язык : Russian
ServiceKind/String : Complete Main
Default : Да
Forced : Нет
Скриншоты:


Все релизы "Квартирник на НТВ у Маргулиса" в Клубе
Детали торрента:
Название:Квартирник на НТВ у Маргулиса. Круиз (02.03.2018) WEBRip [H.264/1080p-LQ]
Дата добавления:04 Фев 2018 10:05:37
Размер:1,09 GB
Раздают:5
Качают:0
Форум:Концерты

All rights reserved © 2015-2018