TORRENTS43.XYZ

Скачать Квартирник на НТВ у Маргулиса. Чайф (01.27.2018) WEBRip [H.264/1080p-LQ]


Квартирник на НТВ у Маргулиса. Чайф (01.27.2018) WEBRip [H.264/1080p-LQ]
Производство:
Жанр: Концерт

Описание:
В гости к Евгению Маргулису пришла легендарная группа "Чайф", которая не только исполнила любимые хиты миллионов людей, но и рассказала о начале своего творческого пути.

Релиз от: Алехаndr
Продолжительность: 01:09:49
Качество видео: WEBRip
Субтитры: Отсутствуют

Видео: AVC/H.264, 1920x1080 (16:9), ~2335 Kbps
Аудио: AC3, 2 ch, 192 Kbps

Mediainfo:


Общее
Уникальный идентификатор : 75312578031194037020816498721587610863 (0x38A8ACC7AEF6C74F1ACFB91DBEBA44EF)
Полное имя : G:\Квартирник НТВ у Маргулиса (Чайф).by.Алехаndr.mkv
Формат : Matroska
Версия формата : Version 4 / Version 2
Размер файла : 1,23 Гбайт
Продолжительность : 1 ч. 9 м.
Общий поток : 2528 Кбит/сек
Дата кодирования : UTC 2018-01-28 07:16:09
Программа кодирования : mkvmerge v20.0.0 ('I Am The Sun') 64-bit
Библиотека кодирования : libebml v1.3.5 + libmatroska v1.4.8 / Lavf57.71.100

Видео
Идентификатор : 1
Формат : AVC
Формат/Информация : Advanced Video Codec
Профиль формата : High@L4
Настройки формата : CABAC / 3 Ref Frames
Параметр CABAC формата : Да
Параметр RefFrames формата : 3 кадра
Идентификатор кодека : V_MPEG4/ISO/AVC
Продолжительность : 1 ч. 9 м.
Битрейт : 2334 Кбит/сек
Ширина : 1920 пикселей
Высота : 1080 пикселей
Соотношение сторон : 16:9
Режим частоты кадров : Постоянный
Частота кадров : 25,000 кадров/сек
Цветовое пространство : YUV
Субдискретизация насыщенности : 4:2:0
Битовая глубина : 8 бит
Тип развёртки : Прогрессивная
Бит/(Пиксели*Кадры) : 0.045
Размер потока : 1,14 Гбайт (92%)
Default : Да
Forced : Нет
Цветовой диапазон : Limited
Основные цвета : BT.709
Характеристики трансфера : BT.709
Коэффициенты матрицы : BT.709

Аудио
Идентификатор : 2
Формат : AC-3
Формат/Информация : Audio Coding 3
Идентификатор кодека : A_AC3
Продолжительность : 1 ч. 9 м.
Вид битрейта : Постоянный
Битрейт : 192 Кбит/сек
Каналы : 2 канала
Расположение каналов : Front: L R
Частота : 44,1 КГц
Частота кадров : 28,711 кадров/сек (1536 SPF)
Битовая глубина : 16 бит
Метод сжатия : С потерями
Задержка видео : -40 мс.
Размер потока : 95,9 Мбайт (8%)
Язык : Russian
ServiceKind/String : Complete Main
Default : Да
Forced : Нет
Скриншоты:


Все релизы "Квартирник на НТВ у Маргулиса" в Клубе
Детали торрента:
Название:Квартирник на НТВ у Маргулиса. Чайф (01.27.2018) WEBRip [H.264/1080p-LQ]
Дата добавления:28 Янв 2018 10:26:33
Размер:1,23 GB
Раздают:13
Качают:0
Форум:Концерты

All rights reserved © 2015-2018