TORRENTS43.XYZ

Скачать Телохранитель киллера / The Hitman's Bodyguard (2017) UHD BDRemux [H.265/2160p] [4K, HDR, 10-bit]


Телохранитель киллера / The Hitman's Bodyguard (2017) UHD BDRemux [H.265/2160p] [4K, HDR, 10-bit] «Когда новый клиент – старый враг»
Производство: Нидерланды, Китай, Болгария, США / Millennium Films
Жанр: боевик, комедия

Режиссер: Патрик Хьюз
Продюсер: Дэвид Эллисон, Марк Гилл, Дэна Голдберг
Актеры: Райан Рейнольдc, Сэмюэл Л. Джексон, Элоди Юнг, Цуваюки Саотомэ, Рой Хилл, Ричард Э. Грант, Гари Олдман, Род Халлетт, Юрий Колокольников, Надя Коначкиева

Описание:
Он — телохранитель мирового уровня. Его новая работа — охранять киллера, которого все мечтают убить. Он и сам с удовольствием прикончил бы этого гада. Но работа есть работа: смертельные враги в прошлом, они вынуждены объединиться в настоящем, чтобы выжить. Однако их методы настолько различны, а принципы противоположны, что вопрос выживания — под большим вопросом.


Возраст: 18+ (зрителям, достигшим 18 лет. запрещено для детей)
Рейтинг MPAA: R (лицам до 17 лет обязательно присутствие взрослого)
Дата мировой премьеры: 10 августа 2017
Премьера (РФ): 17 августа 2017, «MEGOGO Distribution»
Релиз на Blu-ray/DVD: 27 ноября 2017, «НД Плэй»


Релиз от: ExKinoRay
Продолжительность: 01:58:17
Качество: UHD BDRemux (HDR)
Перевод: Дублированный (Лицензия BD RUS), Авторский (Михаил Чадов)
Субтитры: Русские (full), английские

Видео: HEVC/H.265, 3840x2160, (16:9), 70.9 Mb/s, 23.976 fps
Аудио 1: DTS-HD MA, 6 ch, 3840 kbps - Русский, Дубляж
Аудио 2: AC3, 6 ch, 640 kbps - Русский, Дубляж
Аудио 3: DTS-HD MA, 8 ch, 5305 kbps - Русский, Михаил Чадов
Аудио 4: TrueHD, 8 ch, 4600 kbps - Английский
Аудио 5: AC3, 6 ch, 640 kbps - Английский

Дополнительная информация:

В авторской озвучке присутствует ненормативная лексика. Будьте предельно осторожны!

Mediainfo:

General
Unique ID : 233453941109364912365598914365752115802 (0xAFA197F4F9A2EAD99FC9B49EFD1C825A)
Complete name : G:VideoSSDThe.Hitmans.Bodyguard.2017.BDREMUX.2160p.4K.UltraHD.HEVC.HDR.ExKinoRay.mkv
Format : Matroska
Format version : Version 4 / Version 2
File size : 71.1 GiB
Duration : 1 h 58 min
Overall bit rate mode : Variable
Overall bit rate : 86.0 Mb/s
Movie name : The Hitman's Bodyguard 2017 from ExKinoRay
Encoded date : UTC 2017-12-13 14:38:30
Writing application : mkvmerge v18.0.0 ('Apricity') 64-bit
Writing library : libebml v1.3.5 + libmatroska v1.4.8

Video
ID : 1
Format : HEVC
Format/Info : High Efficiency Video Coding
Format profile : Main 10@L5.1@High
Codec ID : V_MPEGH/ISO/HEVC
Duration : 1 h 58 min
Bit rate : 70.9 Mb/s
Width : 3 840 pixels
Height : 2 160 pixels
Display aspect ratio : 16:9
Frame rate mode : Constant
Frame rate : 23.976 (24000/1001) FPS
Color space : YUV
Chroma subsampling : 4:2:0 (Type 2)
Bit depth : 10 bits
Bits/(Pixel*Frame) : 0.356
Stream size : 58.6 GiB (82%)
Language : English
Default : Yes
Forced : No
Color range : Limited
Color primaries : BT.2020
Transfer characteristics : PQ
Matrix coefficients : BT.2020 non-constant
Mastering display color pri : R: x=0.680000 y=0.320000, G: x=0.265000 y=0.690000, B: x=0.150000 y=0.060000, White point: x=0.312700 y=0.329000
Mastering display luminance : min: 0.0050 cd/m2, max: 1000.0000 cd/m2
Maximum Content Light Level : 1000 cd/m2
Maximum Frame-Average Light : 566 cd/m2

Audio #1
ID : 2
Format : DTS
Format/Info : Digital Theater Systems
Format profile : MA / Core
Mode : 16
Format settings, Endianness : Big
Codec ID : A_DTS
Duration : 1 h 58 min
Bit rate mode : Variable / Constant
Bit rate : 3 840 kb/s / 1 509 kb/s
Channel(s) : 6 channels
Channel positions : Front: L C R, Side: L R, LFE
Sampling rate : 48.0 kHz
Frame rate : 93.750 FPS (512 SPF)
Bit depth : 24 bits
Compression mode : Lossless / Lossy
Stream size : 3.21 GiB (5%)
Title : Dub [License]
Language : Russian
Default : Yes
Forced : No

Audio #2
ID : 3
Format : AC-3
Format/Info : Audio Coding 3
Format settings, Endianness : Big
Codec ID : A_AC3
Duration : 1 h 58 min
Bit rate mode : Constant
Bit rate : 640 kb/s
Channel(s) : 6 channels
Channel positions : Front: L C R, Side: L R, LFE
Sampling rate : 48.0 kHz
Frame rate : 31.250 FPS (1536 SPF)
Bit depth : 16 bits
Compression mode : Lossy
Stream size : 542 MiB (1%)
Title : Dub [License]
Language : Russian
Service kind : Complete Main
Default : No
Forced : No

Audio #3
ID : 4
Format : DTS
Format/Info : Digital Theater Systems
Format profile : MA / Core
Mode : 16
Format settings, Endianness : Big
Codec ID : A_DTS
Duration : 1 h 58 min
Bit rate mode : Variable / Constant
Bit rate : 5 305 kb/s / 1 509 kb/s
Channel(s) : 8 channels / 6 channels
Channel positions : Front: L C R, Side: L R, Back: L R, LFE / Front: L C R, Side: L R, LFE
Sampling rate : 48.0 kHz
Frame rate : 93.750 FPS (512 SPF)
Bit depth : 24 bits
Compression mode : Lossless / Lossy
Stream size : 4.38 GiB (6%)
Title : AVO
Language : Russian
Default : No
Forced : No

Audio #4
ID : 5
Format : TrueHD
Format profile : TrueHD+Atmos / TrueHD
Codec ID : A_TRUEHD
Duration : 1 h 58 min
Bit rate mode : Variable
Bit rate : 4 600 kb/s
Maximum bit rate : 8 598 kb/s
Channel(s) : Object Based / 8 channels
Channel positions : Object Based / Front: L C R, Side: L R, Back: L R, LFE
Sampling rate : / 48.0 kHz
Frame rate : 1 200.000 FPS (40 SPF)
Compression mode : Lossless
Stream size : 3.81 GiB (5%)
Title : Original
Language : English
Default : No
Forced : No

Audio #5
ID : 6
Format : AC-3
Format/Info : Audio Coding 3
Format settings, Endianness : Big
Codec ID : A_AC3
Duration : 1 h 58 min
Bit rate mode : Constant
Bit rate : 640 kb/s
Channel(s) : 6 channels
Channel positions : Front: L C R, Side: L R, LFE
Sampling rate : 48.0 kHz
Frame rate : 31.250 FPS (1536 SPF)
Bit depth : 16 bits
Compression mode : Lossy
Stream size : 542 MiB (1%)
Language : English
Service kind : Complete Main
Default : No
Forced : No

Text #1
ID : 7
Format : UTF-8
Codec ID : S_TEXT/UTF8
Codec ID/Info : UTF-8 Plain Text
Duration : 1 h 56 min
Bit rate : 86 b/s
Count of elements : 1542
Stream size : 74.3 KiB (0%)
Title : Full
Language : Russian
Default : No
Forced : No

Text #2
ID : 8
Format : UTF-8
Codec ID : S_TEXT/UTF8
Codec ID/Info : UTF-8 Plain Text
Duration : 1 h 56 min
Bit rate : 58 b/s
Count of elements : 1485
Stream size : 50.0 KiB (0%)
Title : Full
Language : English
Default : No
Forced : No

Menu
00:00:00.000 : en:Chapter 01
00:07:23.902 : en:Chapter 02
00:13:54.834 : en:Chapter 03
00:20:24.265 : en:Chapter 04
00:27:21.098 : en:Chapter 05
00:32:54.472 : en:Chapter 06
00:38:26.387 : en:Chapter 07
00:46:53.936 : en:Chapter 08
00:56:40.314 : en:Chapter 09
01:00:24.329 : en:Chapter 10
01:09:12.357 : en:Chapter 11
01:16:35.341 : en:Chapter 12
01:21:12.201 : en:Chapter 13
01:27:46.052 : en:Chapter 14
01:35:07.702 : en:Chapter 15
01:40:38.699 : en:Chapter 16

Трейлер:

YouTube
Скриншоты:

Релизы фильма "Телохранитель киллера / The Hitman's Bodyguard" на NNM Club

Смотреть Online

http://moonwalk.cc/video/e6918eb9cf4b6d05/iframe
Детали торрента:
Название:Телохранитель киллера / The Hitman's Bodyguard (2017) UHD BDRemux [H.265/2160p] [4K, HDR, 10-bit]
Дата добавления:25 Янв 2018 04:14:35
Размер:71,1 GB
Раздают:7
Качают:0
Форум:Новинки (HD, UHD)

All rights reserved © 2015-2018