TORRENTS43.XYZ

Скачать Квартирник на НТВ у Маргулиса. Александр Пушной (01.20.2018) WEBRip [H.264/1080p-LQ]


Квартирник на НТВ у Маргулиса. Александр Пушной
Производство:
Жанр: Концерт

Описание:
Александр Пушной - музыкант, певец, актер, телеведущий, мультиинструменталист и композитор. Евгений Маргулис расскажет, как познакомился с Александром, вспомнив, что первая встреча с музыкантом произошла на КВН, где Александр играл на барабанах и читал стихи. Музыканты исполнят песню, для которой они не написали ни одной строчки...

Релиз от: Алехаndr
Продолжительность: 00:46:42
Качество видео: WEBRip
Субтитры: Отсутствуют

Видео: AVC/H.264, 1920x1080 (16:9), ~2300 Kbps
Аудио: AC3, 2 ch, 192 Kbps

Mediainfo:


Общее
Уникальный идентификатор : 149232300828320498307728773606800943821 (0x7045187EB6DBD95C551016036338EACD)
Полное имя : G:\Квартирник НТВ у Маргулиса (Александр Пушной).by.Алехаndr.mkv
Формат : Matroska
Версия формата : Version 4 / Version 2
Размер файла : 833 Мбайт
Продолжительность : 46 м. 42 с.
Общий поток : 2493 Кбит/сек
Дата кодирования : UTC 2018-01-21 06:07:07
Программа кодирования : mkvmerge v20.0.0 ('I Am The Sun') 64-bit
Библиотека кодирования : libebml v1.3.5 + libmatroska v1.4.8 / Lavf57.71.100

Видео
Идентификатор : 1
Формат : AVC
Формат/Информация : Advanced Video Codec
Профиль формата : High@L4
Настройки формата : CABAC / 3 Ref Frames
Параметр CABAC формата : Да
Параметр RefFrames формата : 3 кадра
Идентификатор кодека : V_MPEG4/ISO/AVC
Продолжительность : 46 м. 42 с.
Битрейт : 2299 Кбит/сек
Ширина : 1920 пикселей
Высота : 1080 пикселей
Соотношение сторон : 16:9
Режим частоты кадров : Постоянный
Частота кадров : 25,000 кадров/сек
Цветовое пространство : YUV
Субдискретизация насыщенности : 4:2:0
Битовая глубина : 8 бит
Тип развёртки : Прогрессивная
Бит/(Пиксели*Кадры) : 0.044
Размер потока : 768 Мбайт (92%)
Default : Да
Forced : Нет
Цветовой диапазон : Limited
Основные цвета : BT.709
Характеристики трансфера : BT.709
Коэффициенты матрицы : BT.709

Аудио
Идентификатор : 2
Формат : AC-3
Формат/Информация : Audio Coding 3
Идентификатор кодека : A_AC3
Продолжительность : 46 м. 42 с.
Вид битрейта : Постоянный
Битрейт : 192 Кбит/сек
Каналы : 2 канала
Расположение каналов : Front: L R
Частота : 44,1 КГц
Частота кадров : 28,711 кадров/сек (1536 SPF)
Битовая глубина : 16 бит
Метод сжатия : С потерями
Задержка видео : -40 мс.
Размер потока : 64,2 Мбайт (8%)
Язык : Russian
ServiceKind/String : Complete Main
Default : Да
Forced : Нет
Скриншоты:


Все релизы "Квартирник на НТВ у Маргулиса" в Клубе
Детали торрента:
Название:Квартирник на НТВ у Маргулиса. Александр Пушной (01.20.2018) WEBRip [H.264/1080p-LQ]
Дата добавления:21 Янв 2018 09:11:51
Размер:833 MB
Раздают:9
Качают:0
Форум:Концерты

All rights reserved © 2015-2018