TORRENTS43.XYZ

Скачать Новогодний концерт Венского Филармонического оркестра / Neujahrskonzert der Wiener Philharmoniker (2018) HDTVRip


Новогодний концерт Венского Филармонического оркестра / Neujahrskonzert der Wiener Philharmoniker 2018 (2018) HDTVRip
Производство: Австрия, ORF, Sony Classikal
Жанр: Музыкальный концерт, классическая музыка

Дирижёр: Риккардо Мути
Исполнители: Венский филармонический оркестр, Риккардо Мути, Венский Государственный балет

Описание:
Прямая трансляция Новогоднего концерта Венского филармонического оркестра из Золотого зала Musikverein. Популярный концерт Венского филармонического оркестра, который традиционно проходит в Вене в первый день наступившего нового года и транслируется в 90 стран мира, на этот раз проведёт итальянский дирижёр Риккардо Мути. Музыкальная основа программы - произведения семьи Штраусов. Танцевальные номера представят солисты Венского государственного балета. Концерт сопровождают видеокартины, а в антракте будет показан фильм, специально создаваемый для каждого Новогоднего концерта.

Треклист:
Часть 1
Johann Strauss, Jr.
Entrance March from the Operetta "The Gypsy Baron"
Josef Strauss
Wiener Fresken (Viennese Frescos), Waltz, op. 249
Johann Strauss, Jr.
Brautschau (Bride Shopping), Polka, op. 417
Leichtes Blut (Light of Heart), Fast Polka, op. 319

Johann Strauss, sen.
Marienwalzer (Maria Waltz), op. 212
William Tell Galop, op. 29b

Intermission Feature - Wiener Moderne 1918-2018 - музыкальный фильм

Часть 2
Franz von Suppé
Overture to "Boccaccio"
Johann Strauss, Jr.
Myrthenblüten (Myrtle Blossoms), Waltz, op. 395
Alphons Czibulka
Stephanie Gavotte, op. 312
Johann Strauss, Jr.
Freikugeln (Magic Bullets), Fast Polka, op. 326
Tales from the Vienna Woods, Waltz, op. 325
Fest-Marsch (Festival March), op. 452
Stadt und Land (Town and Country), Polka Mazurka, op. 322
Un ballo in maschera (Masked Ball), Quadrille, op. 272
Rosen aus dem Süden (Roses from the South), Waltz, op. 388
Josef Strauss
Eingesendet (Letters to the Editor), Fast Polka, op. 240
The zither solo in the waltz "Tales from the Vienna Woods" is performed by Barbara Laister-Ebner.

Продолжительность: 02:37:36
Качество видео: HDTVRip

Релиз от: ivanduskoj

Видео: XviD, 720x400 (16:9), 1830 Кбит/с, 25 кадр/с, 0.254 bit/pixel
Аудио 1: Русский, Dolby AC3, 48000 Гц, 192 кбит/с, 2 канала - А. Пряхин
Аудио #2: Немецкий, Dolby AC3, 48000 Гц, 448 кбит/с, 6 каналов - Оригинал

Mediainfo

General
Complete name : Neujahrskonzert.2018.HDTVRip.avi
Format : AVI
Format/Info : Audio Video Interleave
Format profile : OpenDML
File size : 2.73 GiB
Duration : 2h 37mn
Overall bit rate : 2 482 Kbps
Movie name : Новогодний концерт Венского филармонического оркестра 2018 / Neujahrskonzert der Wiener Philharmoniker 2018
Writing application : VirtualDubMod 1.5.10.3 | www.virtualdub-fr.org || (build 2550/release)
Writing library : VirtualDubMod build 2550/release
Copyright : rip by ivandubskoj

Video
ID : 0
Format : MPEG-4 Visual
Format profile : Advanced Simple@L5
Format settings, BVOP : 1
Format settings, QPel : No
Format settings, GMC : No warppoints
Format settings, Matrix : Custom
Codec ID : XVID
Codec ID/Hint : XviD
Duration : 2h 37mn
Bit rate : 1 830 Kbps
Width : 720 pixels
Height : 400 pixels
Display aspect ratio : 16:9
Frame rate : 25.000 fps
Color space : YUV
Chroma subsampling : 4:2:0
Bit depth : 8 bits
Scan type : Progressive
Compression mode : Lossy
Bits/(Pixel*Frame) : 0.254
Stream size : 2.01 GiB (74%)
Writing library : XviD 73

Audio #1
ID : 1
Format : AC-3
Format/Info : Audio Coding 3
Mode extension : CM (complete main)
Codec ID : 2000
Duration : 2h 37mn
Bit rate mode : Constant
Bit rate : 192 Kbps
Channel(s) : 2 channels
Channel positions : Front: L R
Sampling rate : 48.0 KHz
Bit depth : 16 bits
Compression mode : Lossy
Stream size : 216 MiB (8%)
Alignment : Split accross interleaves
Interleave, duration : 64 ms (1.60 video frames)
Interleave, preload duration : 500 ms
Title : Russian [A. Пpяxин]

Audio #2
ID : 2
Format : AC-3
Format/Info : Audio Coding 3
Mode extension : CM (complete main)
Codec ID : 2000
Duration : 2h 37mn
Bit rate mode : Constant
Bit rate : 448 Kbps
Channel(s) : 5 channels
Channel positions : Front: L C R, Side: L R
Sampling rate : 48.0 KHz
Bit depth : 16 bits
Compression mode : Lossy
Stream size : 505 MiB (18%)
Alignment : Split accross interleaves
Interleave, duration : 64 ms (1.60 video frames)
Interleave, preload duration : 500 ms
Title : German [Original]
Скриншоты:


Все одноименные релизы в Клубе
Детали торрента:
Название:Новогодний концерт Венского Филармонического оркестра / Neujahrskonzert der Wiener Philharmoniker (2018) HDTVRip
Дата добавления:13 Янв 2018 23:28:33
Размер:2,73 GB
Раздают:2
Качают:0
Форум:Концерты

All rights reserved © 2015-2018