TORRENTS43.XYZ

Скачать За пригоршню динамита / Giu la testa / Duck, You Sucker / A Fistful of Dynamite (1971) DVDRip


За пригоршню динамита / Giú la testa / Duck, You Sucker / A Fistful of Dynamite (1971) DVDRip«Rod Steiger and James Coburn will blow you apart in 'A Fistful of Dynamite' ('Duck You Sucker') by the master of adventure Sergio Leone»
Год выпуска: 1971
Производство: Italia/ Rafran Cinematografica, Euro International Film (EIA), San Miura See
Жанр: вестерн, приключения

Режиссер: Серджо Леоне
Оператор: Джузеппе Руццолини
Композитор: Эннио Морриконе
Актеры: Джеймс Коберн, Род Стайгер, Ромоло Валли, Антуан Сент-Джон, Франко Грациози, Дэвид Уорбек, Рой Босьер, Джон Фредерик, Мария Монти, Антонио Казале

Описание фильма: В «За пригоршню динамита» перед нами предстает Мексика времен гражданской войны 1910 -1917 годов. Нищета местного населения достигла невиданных размеров. Произвол властей перестал вписываться в разумные рамки - у людей отняли все. А народ, представителем, которого является один из главных героев - безграмотный крестьянин Хуан Миранда, либо вступает в ряды революционеров, либо, как наш герой выходит на большую дорогу. Вместе с сыновьями он экспроприирует у богатых дилижансы и мечтает ограбить банк в городке Месса - Верде. И тут, как ни кстати, судьба сводит его с разочаровавшимся ирландским революционером Джоном Мэллори (Джеймс Кобурн - известный по американским вестернам актер, приглашался сниматься в "За пригоршню долларов" и "Однажды на диком западе", но постоянно отказывался) – специалистом взрывотехником, по совместительству. Хуан пытается удержать случайного встречного, (иногда уговорами, а иногда и грубой силой - в зависимости от ситуации) чтобы тот помог ему ограбить банк при помощи динамита. Но Джон приехал делать бизнес на поставках взрывчатки местному аристократу по фамилии Ашебах. Однако обстоятельства, с которыми столкнуться наши герои, окажутся сильнее - жизнь заставит Хуана и Джона принять участие в Мексиканской революции. Наши герои, сами того не ведая, вступают в революционное движение. И как это обычно бывает - по чистой случайности. А встает на пути революционеров третий персонаж фильма генерал Ганттаруез, вызванный губернатором Уэртой подавить народное восстание. Он, то и срывает планы наших героев, и заставляет их стать ополченцами всерьез...

*** Частично основан на коротком рассказе Хорхе Луиса Борхеса - "Тема предателя и героя" и фильме Бернардо Бертолуччи "Стратегия паука".

Перевод: профессиональный многоголосый закадровый
Субтитры: нет



Дата мировой премьеры: 20 октября 1971

Продолжительность: 02:30:22
Качество: DVDRip

Видео: XviD, 672 x 288 (2.35:1), 1 246 kbps, 25,000 fps, 0,258 b/px
Аудио: MPEG Audio Layer 3, 2 ch, 128 kbps, 48000 Hz [многоголосый закадровый]

MediaInfo

Код:
Общее
Полное имя : E:\Video\[1971] За пригоршню динамита [DVDRip - XviD - 672 x 288].avi
Формат : AVI
Формат/Информация : Audio Video Interleave
Размер файла : 1,45 Гбайт
Продолжительность : 2 ч. 30 м.
Общий поток : 1384 Кбит/сек
Название фильма : За пригоршню динамита / Giu la testa / Fistful of Dynamite, A/ Duck, You Sucker (1971)
Ограничения прав : не проходило оценку
Правообладатель : HeDgEhOt® & Lange97 (FenixClub.com)

Видео
Идентификатор : 0
Формат : MPEG-4 Visual
Профиль формата : Advanced Simple@L5
Параметр BVOP формата : 1
Параметр QPel формата : Нет
Параметр GMC формата : Без точки перехода
Параметр матрицы формата : Выборочная
Идентификатор кодека : XVID
Идентификатор кодека/Подсказка : XviD
Продолжительность : 2 ч. 30 м.
Битрейт : 1246 Кбит/сек
Ширина : 672 пикселя
Высота : 288 пикселей
Соотношение сторон : 2,35:1
Частота кадров : 25,000 кадров/сек
Цветовое пространство : YUV
Субдискретизация насыщенности : 4:2:0
Битовая глубина : 8 бит
Тип развёртки : Прогрессивная
Метод сжатия : С потерями
Бит/(Пиксели*Кадры) : 0.258
Размер потока : 1,31 Гбайт (90%)
Библиотека кодирования : XviD 1.1.2 (UTC 2006-11-01)

Аудио
Идентификатор : 1
Формат : MPEG Audio
Версия формата : Version 1
Профиль формата : Layer 3
Режим : Joint stereo
Расширение режима : MS Stereo
Идентификатор кодека : 55
Идентификатор кодека/Подсказка : MP3
Продолжительность : 2 ч. 30 м.
Вид битрейта : Постоянный
Битрейт : 128 Кбит/сек
Каналы : 2 канала
Частота : 48,0 КГц
Метод сжатия : С потерями
Размер потока : 138 Мбайт (9%)
Выравнивание : Разделение по промежуткам
Продолжительность промежутка : 40 мс. (1,00 видеокадр)
Время предзагрузки промежутка : 500 мс.
Язык : Русский

Интересные факты

*** Персонаж Джона Маллоя был специально написан для Джейсона Робардса, а Эли Уоллах был первоначальным выбором режиссера на роль Хуана Миранды. Однако студия хотела, чтобы в фильме сыграли более известные актеры, поэтому главные роли достались Джеймсу Кобурну и Роду Стайгеру.

*** По словам Серджио Леоне, Сэм Пэкинпа согласился поставить фильм, после того как с проекта ушел Питер Богданович. Однако он запросил слишком большой гонорар, и студия отказалась от его услуг.

*** Кандидатуры Джейсона Робардса и Клинта Иствуда рассматривались на роль Джона.

*** Изначально Малкольм Макдауэлл должен был сыграть Шона.

*** В свое время Джеймсу Кобурну предлагали роли в «За пригоршню долларов» (1964) и «Однажды на Диком Западе» (1968). Когда Леоне предложил Джеймсу роль Шона, Кобурн не особо хотел сниматься в данном фильме и попросил время на размышления. Несколько дней спустя Джеймс встретился с Генри Фондой, сыгравшего в «Однажды на Диком Западе» (1968), и спросил у него, что он думает о Леоне. Фонда ответил, что считает Леоне величайшим режиссером из всех, с кем он когда-либо работал. После этого Кобурн согласился сыграть в фильме.

*** Изначально Питер Богданович должен был поставить фильм, но Род Стайгер и Джеймс Кобурн потребовали от студии, чтобы режиссером стал Леоне.

*** Серджио Леоне предложил Эли Уоллаху роль Хуана Миранды, но Уоллах не мог принять участие в фильме из-за занятости на других проектах. После многочисленных уговоров Леоне Эли согласился на роль и покинул другой проект. Однако к тому моменту студия уже подписала контракт с Родом Стайгером. Леоне не предложил никакой компенсации Уоллаху, поэтому последний подал в суд на производственную компанию.

*** Полная версия фильма имеет хронометраж 158 минут.
Скриншоты:


Смотреть Online

http://moonwalk.cc/video/886191d3f123800e/iframe
Детали торрента:
Название:За пригоршню динамита / Giu la testa / Duck, You Sucker / A Fistful of Dynamite (1971) DVDRip
Дата добавления:04 Апр 2009 21:37:39
Размер:1,45 GB
Раздают:
Качают:0
Форум:Зарубежная Классика (HD*Rip/LQ, DVDRip, SATRip, VHSRip)

All rights reserved © 2015-2018