TORRENTS43.XYZ

Скачать Инферно / Inferno (2016) HDRip [H.264] [MP4|1920x1040]


Инферно / Inferno (2016) HDRip
Производство: США, Венгрия / Columbia Pictures, Imagine Entertainment
Жанр: Боевик, Триллер, Драма, Криминал, Детектив, Приключения

Режиссер: Рон Ховард
Продюсер: Брайан Грейзер, Дэн Браун, Уильям М. Коннор
Актеры: Том Хэнкс, Фелисити Джонс, Омар Си, Ирфан Кхан, Сидсе Бабетт Кнудсен, Бен Фостер, Ана Улару, Ида Дарвиш, Фаусто Мария Шиараппа, Винченцо Танасси

Описание:
Профессор Роберт Лэнгдон приходит в сознание в одной из итальянских больниц, полностью потеряв память. Местный врач Сиенна Брукс пытается помочь Роберту не только восстановить воспоминания, но и остановить загадочных злоумышленников, которые намерены распространить смертоносный вирус. Разгадка таинственной истории связана с «Адом» (ит. Inferno) - первой частью «Божественной комедии» Данте.


Возраст: 16+ (зрителям, достигшим 16 лет)
Рейтинг MPAA: PG-13 (детям до 13 лет просмотр нежелателен)
Дата мировой премьеры: 8 октября 2016
Дата российской премьеры: 13 октября 2016, «WDSSPR»

Продолжительность: 02:01:35
Качество видео: HDRip
Перевод: Дублированный (Лицензия BD CEE)
Субтитры: Русские (форсированные, полные), Английские (полные)

Видео: AVC/H.264, 1920x1040, ~2809 Kbps
Аудио: AC3, 6 ch, 384 kbps

Mediainfo:


Общее
Полное имя : E:\Download\Инферно 2016 1080p.mp4
Формат : MPEG-4
Профиль формата : Base Media
Идентификатор кодека : isom (isom/avc1/iso6)
Размер файла : 2,71 Гбайт
Продолжительность : 2 ч. 1 м.
Режим общего битрейта : Переменный
Общий поток : 3195 Кбит/сек
Дата кодирования : UTC 2017-11-25 06:22:50
Дата пометки : UTC 2017-11-25 06:22:50

Видео
Идентификатор : 1
Формат : AVC
Формат/Информация : Advanced Video Codec
Профиль формата : High@L4
Настройки формата : CABAC / 2 Ref Frames
Параметр CABAC формата : Да
Параметр RefFrames формата : 2 кадра
Идентификатор кодека : avc1
Идентификатор кодека/Информация : Advanced Video Coding
Продолжительность : 2 ч. 1 м.
Битрейт : 2809 Кбит/сек
Максимальный битрейт : 11,2 Мбит/сек
Ширина : 1920 пикселей
Высота : 1040 пикселей
Соотношение сторон : 1,85:1
Режим частоты кадров : Постоянный
Частота кадров : 23,976 (24000/1001) кадра/сек
Цветовое пространство : YUV
Субдискретизация насыщенности : 4:2:0
Битовая глубина : 8 бит
Тип развёртки : Прогрессивная
Бит/(Пиксели*Кадры) : 0.059
Размер потока : 2,39 Гбайт (88%)
Дата кодирования : UTC 2017-11-25 06:22:50
Дата пометки : UTC 2017-11-25 06:25:19
Цветовой диапазон : Limited
Основные цвета : BT.709
Характеристики трансфера : BT.709
Коэффициенты матрицы : BT.709

Аудио
Идентификатор : 2
Формат : AC-3
Формат/Информация : Audio Coding 3
Параметр Endianness формата : Big
Идентификатор кодека : ac-3
Продолжительность : 2 ч. 1 м.
Вид битрейта : Постоянный
Битрейт : 384 Кбит/сек
Максимальный битрейт : 406 Кбит/сек
Каналы : 6 каналов
Расположение каналов : Front: L C R, Side: L R, LFE
Частота : 48,0 КГц
Частота кадров : 31,250 кадров/сек (1536 SPF)
Битовая глубина : 16 бит
Метод сжатия : С потерями
Размер потока : 334 Мбайт (12%)
Заголовок : Дублированный (Лицензия BD CEE)
Язык : Russian
ServiceKind/String : Complete Main
Дата кодирования : UTC 2017-11-25 06:24:52
Дата пометки : UTC 2017-11-25 06:25:19

Текст #1
Идентификатор : 3
Формат : Timed Text
Идентификатор кодека : tx3g
Продолжительность : 1 ч. 55 м.
Вид битрейта : Переменный
Битрейт : 3 бит/сек
Размер потока : 2,79 Кбайт (0%)
Заголовок : Forced
Язык : Russian
Forced : Нет
Дата кодирования : UTC 2017-11-25 06:25:18
Дата пометки : UTC 2017-11-25 06:25:19

Текст #2
Идентификатор : 4
Формат : Timed Text
Идентификатор кодека : tx3g
Продолжительность : 1 ч. 56 м.
Вид битрейта : Переменный
Битрейт : 98 бит/сек
Размер потока : 83,4 Кбайт (0%)
Заголовок : Full
Язык : Russian
Forced : Нет
Дата кодирования : UTC 2017-11-25 06:25:18
Дата пометки : UTC 2017-11-25 06:25:19

Текст #3
Идентификатор : 5
Формат : Timed Text
Идентификатор кодека : tx3g
Продолжительность : 1 ч. 56 м.
Вид битрейта : Переменный
Битрейт : 63 бит/сек
Размер потока : 53,5 Кбайт (0%)
Заголовок : Full
Язык : English
Forced : Нет
Дата кодирования : UTC 2017-11-25 06:25:18
Дата пометки : UTC 2017-11-25 06:25:19
Скриншоты:


Все одноименные релизы в Клубе

Смотреть Online

http://moonwalk.cc/video/2eacfefbf0fd3218/iframe
Детали торрента:
Название:Инферно / Inferno (2016) HDRip [H.264] [MP4|1920x1040]
Дата добавления:25 Ноя 2017 10:26:23
Размер:2,71 GB
Раздают:7
Качают:0
Форум:Мобильное Видео

All rights reserved © 2015-2018