TORRENTS43.XYZ

Скачать Nomenklatür (Nomenklatur) - Collection 8 Releases (2009-2014) [FLAC|Lossless|tracks+.cue, tracks] <Techno, Minimal, Electro, Tech House>




Nomenklatür was born after the meeting of Olivier Brucker and Olivier Rossi, two militants of the French underground techno scene during a party in Ostgut Berlin, actually knows as Berghain. Since 2005 , they have been creating a unique fusion of deep techno and electro music by using half modular and analog synthesizers, software, and homemade modules.
Жанр: Techno, Minimal, Electro, Tech House • Страна: France • Год издания: 2009-2014 • Тип издания: CD, Web
Аудиокодек: FLAC (*.flac) | Тип рипа: tracks+.cue, tracks • Продолжительность: 03:35:32 • Источник: What, bandcamp
Треклист:

2009 Gifts Of Ages (WEB)

Год выпуска: 2009
Жанр: Techno/Minimal/Electro
Продолжительность: 00:48:51
Треклист:

01. Whispers In The Street (05:48)
02. Last Station (03:35)
03. Mounted Sharps Of Overland (05:09)
04. Lucky For A Day (05:42)
05. Nocturnal Embrace (03:53)
06. Close To The End (04:53)
07. Between Buns (04:44)
08. The Game (04:55)
09. Time Machine (04:49)
10. Epilogue (05:23)

Лог проверки качества


-----------------------

DON'T MODIFY THIS FILE

-----------------------

PERFORMER: auCDtect Task Manager, ver. 1.6.0 RC1 build 1.6.0.1
Copyright (c) 2008-2010 y-soft. All rights reserved
http://y-soft.org

ANALYZER: auCDtect: CD records authenticity detector, version 0.8.2
Copyright (c) 2004 Oleg Berngardt. All rights reserved.
Copyright (c) 2004 Alexander Djourik. All rights reserved.

FILE: 01. Whispers In The Street.flac
Size: 41608727 Hash: D69A8009A291E7E65C3587769E0C9FC4 Accuracy: -m0
Conclusion: CDDA 100%
Signature: 4DD42EBCBB5823C69350989EE9D897E8AF77069F
FILE: 10. Epilogue.flac
Size: 34730817 Hash: 64FE9AB2BE59532C2AAB4B48B731F8D2 Accuracy: -m0
Conclusion: CDDA 100%
Signature: 3EEE6956E15425319A974E0DA7395FFD726401EF
FILE: 09. Time Machine.flac
Size: 35074120 Hash: AF60D842153A9C068CBDF6CB4A58650D Accuracy: -m0
Conclusion: CDDA 100%
Signature: ED2965D4814899E84D34CE237204C7777D4025FF
FILE: 08. The Game.flac
Size: 35645505 Hash: CFD884B4C7074FA14072FFC65583ACC0 Accuracy: -m0
Conclusion: CDDA 100%
Signature: 884CCB8896E15C6227343438A757D7C3D0B8FFFB
FILE: 07. Between Buns.flac
Size: 31390689 Hash: D797A98C7294B50849E678A6911AAB1D Accuracy: -m0
Conclusion: CDDA 100%
Signature: C05BDA5DBBBB6DF2583E4751F067AC0982CF130D
FILE: 06. Close To The End.flac
Size: 35220225 Hash: 255A7E7A6E1349A20D2A40C263ADF3EE Accuracy: -m0
Conclusion: CDDA 100%
Signature: 14ED44B06A8475BB255308926FEEE3A7F9F5361E
FILE: 05. Nocturnal Embrace.flac
Size: 28114424 Hash: D319C44D4CCE55B5DFFA18660CB64771 Accuracy: -m0
Conclusion: CDDA 100%
Signature: 3D080F3D234E58C3D289D956317F75B1946E45B2
FILE: 04. Lucky For A Day.flac
Size: 39779825 Hash: 4A0B90702C4DE7738B2EE05626E68D08 Accuracy: -m0
Conclusion: CDDA 100%
Signature: B8255D740347539F05A0CF67EE10A92924BB6372
FILE: 03. Mounted Sharps Of Overland.flac
Size: 39406459 Hash: 32B71CF0F04E71349243B957C6CAEF2F Accuracy: -m0
Conclusion: CDDA 100%
Signature: DFB30017B58F4C0E6644664FFA3A2416DD212E51
FILE: 02. Last Station.flac
Size: 24237063 Hash: DB8A8792875BA089F3EF786D77AA2E65 Accuracy: -m0
Conclusion: CDDA 100%
Signature: 77B4E38A7080BFA9DEAC03BE214201AB313AA32E

2011 Fascinated By The Chaos (CD)

Год выпуска: 2011
Жанр: Techno/Minimal/Electro
Продолжительность: 00:57:46
Треклист:

01. It's All In The Air (feat. Mini) (05:41)
02. Personal Diary (06:23)
03. This Is Going To Happen (05:03)
04. Freaky Freaky (05:35)
05. Fascinated By The Chaos (04:50)
06. Under The Light (04:43)
07. Master & Slave (06:23)
08. Uncertain Square (04:11)
09. Duel (02:45)
10. What The Fear Does To The Mind (06:23)
11. That's All (feat. Yasmin Gate) (05:49)

EAC


Exact Audio Copy V1.0 beta 3 from 29. August 2011

EAC extraction logfile from 11. May 2013, 13:52

Nomenklatür / Fascinated By The Chaos

Used drive : TSSTcorpCDDVDW TS-L633C Adapter: 0 ID: 1

Read mode : Secure
Utilize accurate stream : Yes
Defeat audio cache : Yes
Make use of C2 pointers : No

Read offset correction : 6
Overread into Lead-In and Lead-Out : No
Fill up missing offset samples with silence : Yes
Delete leading and trailing silent blocks : No
Null samples used in CRC calculations : Yes
Used interface : Native Win32 interface for Win NT & 2000
Gap handling : Appended to previous track

Used output format : User Defined Encoder
Selected bitrate : 1024 kBit/s
Quality : High
Add ID3 tag : No
Command line compressor : C:\Program Files (x86)\Trader's Little Helper\CmdlineApps\flac.exe
Additional command line options : -8 -V -T "ARTIST=%artist%" -T "TITLE=%title%" -T "ALBUM=%albumtitle%" -T "DATE=%year%" -T "TRACKNUMBER=%tracknr%" -T "GENRE=%genre%" -T "PERFORMER=%albuminterpret%" -T "COMPOSER=%composer%" %haslyrics%--tag-from-file=LYRICS="%lyricsfile%"%haslyrics% -T "ALBUMARTIST=%albumartist%" -T "DISCNUMBER=%cdnumber%" -T "TOTALDISCS=%totalcds%" -T "TOTALTRACKS=%numtracks%" -T "COMMENT=%comment%" %source% -o %dest%

TOC of the extracted CD

Track | Start | Length | Start sector | End sector
---------------------------------------------------------
1 | 0:00.00 | 5:41.06 | 0 | 25580
2 | 5:41.06 | 6:23.37 | 25581 | 54342
3 | 12:04.43 | 5:03.30 | 54343 | 77097
4 | 17:07.73 | 5:35.11 | 77098 | 102233
5 | 22:43.09 | 4:50.29 | 102234 | 124012
6 | 27:33.38 | 4:42.71 | 124013 | 145233
7 | 32:16.34 | 6:22.62 | 145234 | 173945
8 | 38:39.21 | 4:10.54 | 173946 | 192749
9 | 42:50.00 | 2:45.00 | 192750 | 205124
10 | 45:35.00 | 6:23.29 | 205125 | 233878
11 | 51:58.29 | 5:48.47 | 233879 | 260025

Track 1

Filename D:\Nomenklatür - Fascinated By The Chaos [2011] [FLAC]\01 - It's all in the air (feat. Mini).wav

Pre-gap length 0:00:02.00

Peak level 99.4 %
Extraction speed 2.6 X
Track quality 100.0 %
Test CRC 7A44B77D
Copy CRC 7A44B77D
Track not present in AccurateRip database
Copy OK

Track 2

Filename D:\Nomenklatür - Fascinated By The Chaos [2011] [FLAC]\02 - Personal Diary.wav

Peak level 99.4 %
Extraction speed 2.9 X
Track quality 100.0 %
Test CRC 77FEC448
Copy CRC 77FEC448
Track not present in AccurateRip database
Copy OK

Track 3

Filename D:\Nomenklatür - Fascinated By The Chaos [2011] [FLAC]\03 - This is going to happen.wav

Pre-gap length 0:00:02.33

Peak level 99.4 %
Extraction speed 3.3 X
Track quality 100.0 %
Test CRC 31D51BDB
Copy CRC 31D51BDB
Track not present in AccurateRip database
Copy OK

Track 4

Filename D:\Nomenklatür - Fascinated By The Chaos [2011] [FLAC]\04 - Freaky freaky.wav

Pre-gap length 0:00:01.44

Peak level 99.9 %
Extraction speed 3.7 X
Track quality 100.0 %
Test CRC DBC484AC
Copy CRC DBC484AC
Track not present in AccurateRip database
Copy OK

Track 5

Filename D:\Nomenklatür - Fascinated By The Chaos [2011] [FLAC]\05 - Fascinated by the chaos.wav

Peak level 99.9 %
Extraction speed 3.8 X
Track quality 100.0 %
Test CRC A0AD4D85
Copy CRC A0AD4D85
Track not present in AccurateRip database
Copy OK

Track 6

Filename D:\Nomenklatür - Fascinated By The Chaos [2011] [FLAC]\06 - Under the light.wav

Peak level 99.8 %
Extraction speed 4.0 X
Track quality 100.0 %
Test CRC A3637880
Copy CRC A3637880
Track not present in AccurateRip database
Copy OK

Track 7

Filename D:\Nomenklatür - Fascinated By The Chaos [2011] [FLAC]\07 - Master & Slave.wav

Pre-gap length 0:00:01.66

Peak level 99.6 %
Extraction speed 4.0 X
Track quality 100.0 %
Test CRC 269CF8E2
Copy CRC 269CF8E2
Track not present in AccurateRip database
Copy OK

Track 8

Filename D:\Nomenklatür - Fascinated By The Chaos [2011] [FLAC]\08 - Uncertain square.wav

Pre-gap length 0:00:00.34

Peak level 99.4 %
Extraction speed 4.4 X
Track quality 100.0 %
Test CRC 0967A578
Copy CRC 0967A578
Track not present in AccurateRip database
Copy OK

Track 9

Filename D:\Nomenklatür - Fascinated By The Chaos [2011] [FLAC]\09 - Duel.wav

Peak level 99.5 %
Extraction speed 3.2 X
Track quality 99.9 %
Test CRC F361D227
Copy CRC F361D227
Track not present in AccurateRip database
Copy OK

Track 10

Filename D:\Nomenklatür - Fascinated By The Chaos [2011] [FLAC]\10 - What the fear does to the mind.wav

Pre-gap length 0:00:02.70

Peak level 99.4 %
Extraction speed 4.9 X
Track quality 100.0 %
Test CRC 9A8CEEEE
Copy CRC 9A8CEEEE
Track not present in AccurateRip database
Copy OK

Track 11

Filename D:\Nomenklatür - Fascinated By The Chaos [2011] [FLAC]\11 - That's all (feat. Yasmin Gate).wav

Pre-gap length 0:00:02.26

Peak level 99.4 %
Extraction speed 4.4 X
Track quality 99.9 %
Test CRC EEDE0C4E
Copy CRC EEDE0C4E
Track not present in AccurateRip database
Copy OK

None of the tracks are present in the AccurateRip database

No errors occurred

End of status report

==== Log checksum D16D2386092FF0D6426F300336D04CD04EDD25694A02D198546647CE7F05D6CC ====

CUE


REM DATE 2011
REM DISCID 8D0D8B0B
REM COMMENT "ExactAudioCopy v1.0b3"
PERFORMER "Nomenklatьr"
TITLE "Fascinated By The Chaos"
FILE "01 - It's all in the air (feat. Mini).wav" WAVE
TRACK 01 AUDIO
TITLE "It's all in the air (feat. Mini)"
PERFORMER "Nomenklatьr"
ISRC FR5R00900979
INDEX 01 00:00:00
FILE "02 - Personal Diary.wav" WAVE
TRACK 02 AUDIO
TITLE "Personal Diary"
PERFORMER "Nomenklatьr"
ISRC FR5R00900980
INDEX 01 00:00:00
TRACK 03 AUDIO
TITLE "This is going to happen"
PERFORMER "Nomenklatьr"
ISRC FR5R00900981
INDEX 00 06:21:12
FILE "03 - This is going to happen.wav" WAVE
INDEX 01 00:00:00
TRACK 04 AUDIO
TITLE "Freaky freaky"
PERFORMER "Nomenklatьr"
ISRC FR5R00900982
INDEX 00 05:01:72
FILE "04 - Freaky freaky.wav" WAVE
INDEX 01 00:00:00
FILE "05 - Fascinated by the chaos.wav" WAVE
TRACK 05 AUDIO
TITLE "Fascinated by the chaos"
PERFORMER "Nomenklatьr"
ISRC FR5R00900983
INDEX 01 00:00:00
FILE "06 - Under the light.wav" WAVE
TRACK 06 AUDIO
TITLE "Under the light"
PERFORMER "Nomenklatьr"
ISRC FR5R00900984
INDEX 01 00:00:00
TRACK 07 AUDIO
TITLE "Master & Slave"
PERFORMER "Nomenklatьr"
ISRC FR5R00900985
INDEX 00 04:41:21
FILE "07 - Master & Slave.wav" WAVE
INDEX 01 00:00:00
TRACK 08 AUDIO
TITLE "Uncertain square"
PERFORMER "Nomenklatьr"
ISRC FR5R00900986
INDEX 00 06:22:36
FILE "08 - Uncertain square.wav" WAVE
INDEX 01 00:00:00
FILE "09 - Duel.wav" WAVE
TRACK 09 AUDIO
TITLE "Duel"
PERFORMER "Nomenklatьr"
ISRC FR5R00900986
INDEX 01 00:00:00
TRACK 10 AUDIO
TITLE "What the fear does to the mind"
PERFORMER "Nomenklatьr"
ISRC FR5R00900988
INDEX 00 02:42:22
FILE "10 - What the fear does to the mind.wav" WAVE
INDEX 01 00:00:00
TRACK 11 AUDIO
TITLE "That's all (feat. Yasmin Gate)"
PERFORMER "Nomenklatьr"
ISRC FR5R00900989
INDEX 00 06:21:09
FILE "11 - That's all (feat. Yasmin Gate).wav" WAVE
INDEX 01 00:00:00

2012 Berheim (WEB)

Год выпуска: 2012
Жанр: Techno
Продолжительность: 00:15:22
Треклист:

01. Berheim (07:22)
02. Ondologik (08:00)

Лог проверки качества


-----------------------

DON'T MODIFY THIS FILE

-----------------------

PERFORMER: auCDtect Task Manager, ver. 1.6.0 RC1 build 1.6.0.1
Copyright (c) 2008-2010 y-soft. All rights reserved
http://y-soft.org

ANALYZER: auCDtect: CD records authenticity detector, version 0.8.2
Copyright (c) 2004 Oleg Berngardt. All rights reserved.
Copyright (c) 2004 Alexander Djourik. All rights reserved.

FILE: 02. Ondologik.flac
Size: 48456329 Hash: 722F637A4876E74511A0062DE4A68374 Accuracy: -m0
Conclusion: CDDA 100%
Signature: C54BD10B8090C719409F1AC2617DE83AFC9C69C9
FILE: 01. Berheim.flac
Size: 46328318 Hash: 402E553E3B85B00A16FFCCF7AF1EC261 Accuracy: -m0
Conclusion: CDDA 100%
Signature: A122E17F1B3B9A91793400FB25E40896AC837EBB

2012 Minotaur In The Lost (WEB)

Год выпуска: 2012
Жанр: Techno/Minimal/Tech House
Продолжительность: 00:34:44
Треклист:

01. Minotaur In The Lost (feat. Gigi Succes) (06:42)
02. Minotaur In The Lost (Samuel Brunel Remix) (07:24)
03. Minotaur In The Lost (Redj Remix) (07:07)
04. Scripto Continum (06:33)
05. Scripto Continum (Zecapx Remix) (06:58)

Лог проверки качества


-----------------------

DON'T MODIFY THIS FILE

-----------------------

PERFORMER: auCDtect Task Manager, ver. 1.5.1RC6 build 1.5.1.7
Copyright (c) 2008-2010 y-soft. All rights reserved
http://y-soft.org

ANALYZER: auCDtect: CD records authenticity detector, version 0.8.2
Copyright (c) 2004 Oleg Berngardt. All rights reserved.
Copyright (c) 2004 Alexander Djourik. All rights reserved.

FILE: 05. Scripto Continum (Zecapx Remix).flac
Size: 47351035 Hash: E239FA9A02A9372E8C266D03C7BC4BC3 Accuracy: -m0
Conclusion: CDDA 100%
Signature: 470B2DF5070C0B46F7794B44CEB670E6756A13DB
FILE: 04. Scripto Continum.flac
Size: 41675366 Hash: BBC9725C7B8869B840105D42662CAB4A Accuracy: -m0
Conclusion: CDDA 100%
Signature: 832CCC189AC89F53C7D3CAB381E262F8EE770BD9
FILE: 03. Minotaur In The Lost (Redj Remix).flac
Size: 44162289 Hash: 4DA3A561C045258CDA0B22A6F32C44FA Accuracy: -m0
Conclusion: CDDA 100%
Signature: DE9780030F8B5135D7BE542EAEEEABD4D98E2F5A
FILE: 02. Minotaur In The Lost (Samuel Brunel Remix).flac
Size: 54691987 Hash: 62D9E229A1C91862CC65E14FCFA8BAF3 Accuracy: -m0
Conclusion: MPEG 95%
Signature: 4D0ECEB5B7B474B7944CD8B1251767DDEADC524D
FILE: 01. Minotaur In The Lost (feat. Gigi Succes).flac
Size: 41715192 Hash: BCCAC7E08DD358411C606D3AEA8C8F2C Accuracy: -m0
Conclusion: CDDA 100%
Signature: C6441EEC8EAA921220113657054611245157F612

2012 Self Confident EP (WEB)

Год выпуска: 2012
Жанр: Techno
Продолжительность: 00:20:22
Треклист:

01. Hidden Place (07:28)
02. Hunter Profile (06:27)
03. Self Confident (06:27)

Лог проверки качества


-----------------------

DON'T MODIFY THIS FILE

-----------------------

PERFORMER: auCDtect Task Manager, ver. 1.6.0 RC1 build 1.6.0.1
Copyright (c) 2008-2010 y-soft. All rights reserved
http://y-soft.org

ANALYZER: auCDtect: CD records authenticity detector, version 0.8.2
Copyright (c) 2004 Oleg Berngardt. All rights reserved.
Copyright (c) 2004 Alexander Djourik. All rights reserved.

FILE: 03. Self Confident.flac
Size: 35403022 Hash: 4DA662A26B3FDE8A9B0D301BCD1B34EA Accuracy: -m0
Conclusion: CDDA 100%
Signature: 22924AAF6192AE749DD9C9AE75EA80DEF2BE2CC4
FILE: 02. Hunter Profile.flac
Size: 31230730 Hash: A2F12924980B794C2F2E8FFECB380959 Accuracy: -m0
Conclusion: CDDA 100%
Signature: E83A8C46D749C3619654FC3ACB4CF9BA6E1F05B1
FILE: 01. Hidden Place.flac
Size: 38367422 Hash: 59E1CDF476646F63BAD00F0DF24D3671 Accuracy: -m0
Conclusion: CDDA 100%
Signature: BE275D0CE4D90F10CB868332ABB78756A1FBA6F3

2013 The Shape (WEB)

Год выпуска: 2013
Жанр: Techno
Продолжительность: 00:13:54
Треклист:

01. The Shape (06:25)
02. Xplan (07:29)

Лог проверки качества


-----------------------

DON'T MODIFY THIS FILE

-----------------------

PERFORMER: auCDtect Task Manager, ver. 1.6.0 RC1 build 1.6.0.1
Copyright (c) 2008-2010 y-soft. All rights reserved
http://y-soft.org

ANALYZER: auCDtect: CD records authenticity detector, version 0.8.2
Copyright (c) 2004 Oleg Berngardt. All rights reserved.
Copyright (c) 2004 Alexander Djourik. All rights reserved.

FILE: 02. Xplan.flac
Size: 45352740 Hash: 46F4007C9680E65EACA08FE58523C15D Accuracy: -m0
Conclusion: CDDA 100%
Signature: 891FC85BC5040DCA891E78FFD039632E29E5AAB4
FILE: 01. The Shape.flac
Size: 35495636 Hash: FA55CCDCEE973B8506033042881342DF Accuracy: -m0
Conclusion: CDDA 100%
Signature: 9270C6170EC3BEA6CBBAADB0B87D7A2E3B291560

2014 Changing Ways (WEB)

Год выпуска: 2014
Жанр: Techno
Продолжительность: 00:17:34
Треклист:

01. Changing Ways - Labete Mix (05:59)
02. Cain Is Watching You (05:24)
03. Last Burst (06:11)

Лог проверки качества


-----------------------

DON'T MODIFY THIS FILE

-----------------------

PERFORMER: auCDtect Task Manager, ver. 1.5.1RC6 build 1.5.1.7
Copyright (c) 2008-2010 y-soft. All rights reserved
http://y-soft.org

ANALYZER: auCDtect: CD records authenticity detector, version 0.8.2
Copyright (c) 2004 Oleg Berngardt. All rights reserved.
Copyright (c) 2004 Alexander Djourik. All rights reserved.

FILE: 01. Changing Ways - Labete Mix.flac
Size: 36792371 Hash: 9AB601C3DBD4EB4D0D847B1C44FF9B2B Accuracy: -m0
Conclusion: CDDA 100%
Signature: 6169DAEBB5A4FB9B98317BB4867A270E4F880E1B
FILE: 03. Last Burst.flac
Size: 34413358 Hash: 3A8CB77706E9B341BD4E225AD5DFBCEC Accuracy: -m0
Conclusion: CDDA 100%
Signature: 6516DB727DACC111629D3D7BB47B039BDE079377
FILE: 02. Cain Is Watching You.flac
Size: 35408509 Hash: EA8C7D425708DC5611DAE9F0887C4683 Accuracy: -m0
Conclusion: CDDA 99%
Signature: F4E91C2B9DBBF37C9A89A159B4AF5268127F93E6

2014 Which Side Are You On (WEB)

Год выпуска: 2014
Жанр: Techno
Продолжительность: 00:06:59
Треклист:

01. Which Side Are You On? (06:59)

Лог проверки качества


-----------------------

DON'T MODIFY THIS FILE

-----------------------

PERFORMER: auCDtect Task Manager, ver. 1.6.0 RC1 build 1.6.0.1
Copyright (c) 2008-2010 y-soft. All rights reserved
http://y-soft.org

ANALYZER: auCDtect: CD records authenticity detector, version 0.8.2
Copyright (c) 2004 Oleg Berngardt. All rights reserved.
Copyright (c) 2004 Alexander Djourik. All rights reserved.

FILE: 01. Which Side Are You On.flac
Size: 40056459 Hash: EFC12C18536BA2073E2492128193F75E Accuracy: -m0
Conclusion: CDDA 99%
Signature: 88B79FE5F1861E3359847CD654A018E418AAA575

Discogs

Детали торрента:
Название:Nomenklatür (Nomenklatur) - Collection 8 Releases (2009-2014) [FLAC|Lossless|tracks+.cue, tracks] <Techno, Minimal, Electro, Tech House>
Дата добавления:13 Фев 2018 19:43:50
Размер:1,26 GB
Раздают:1
Качают:0
Форум:House, Techno, Electro, Minimal (Lossless)

All rights reserved © 2015-2018