TORRENTS43.XYZ

Скачать Человек-паук: Возвращение домой / Spider-Man: Homecoming (2017) WEB-DL [H.264/1080p-LQ] [EN / EN Sub]


Человек-паук: Возвращение домой / Spider-Man: Homecoming (2017) WEB-DL [H.264/1080p-LQ] [EN / EN Sub]
Производство: США, Columbia Pictures, Marvel Studios, Pascal Pictures
Жанр: Фантастика, боевик, приключения

Режиссер: Джон Уоттс
Продюсер: Виктория Алонсо, Ави Арад, Митчелл Белл, ...
Актеры: Том Холланд, Роберт Дауни мл., Майкл Китон, Мариса Томей, Джон Фавро, Джейкоб Баталон, Зендея, Лора Хэрриер, Тони Револори, Дональд Гловер ...

Описание:
После исторической встречи с командой Мстителей Питер Паркер возвращается домой, стараясь зажить обычной жизнью под опекой своей тёти Мэй. Но теперь за Питером приглядывает ещё кое-что… Тони Старк видел Человека-Паука в деле и должен стать его наставником. Когда новый злодей Стервятник угрожает уничтожить всё, что дорого Питеру, приходит время доказать всем, что такое настоящий супергерой.


Возраст: 16+ (зрителям, достигшим 16 лет)
Рейтинг MPAA: PG-13 (детям до 13 лет просмотр нежелателен)
Премьера (мир): 28 июня 2017
Премьера (РФ): 6 июля 2017, «WDSSPR»

Продолжительность: 02:13:27
Качество видео: WEB-DL 1080p
Перевод: Отсутствует
Язык озвучки: Английский
Субтитры: Английские

Видео: AVC/H.264, 1920x1080 (16:9), 23.976 fps, 5520 Kbps
Аудио: AC-3, 48.0 KHz, 6 ch, 640 Kbps, CBR

Mediainfo:


Общее
Уникальный идентификатор : 251168354909009727922822786998094743552 (0xBCF543FD0FF2EC20AFCFDE2962C74800)
Полное имя : D:\Spider-Man.Homecoming.2017.AMAZON.WEB-DL.1080p.mkv
Формат : Matroska
Версия формата : Version 4 / Version 2
Размер файла : 5,74 Гбайт
Продолжительность : 2 ч. 13 м.
Режим общего битрейта : Переменный
Общий поток : 6163 Кбит/сек
Дата кодирования : UTC 2017-09-26 13:53:43
Программа кодирования : mkvmerge v15.0.0 ('Duel with the Devil') 64-bit
Библиотека кодирования : libebml v1.3.5 + libmatroska v1.4.5
Attachments : Spider-Man_3A-Homecoming.jpg

Видео
Идентификатор : 1
Формат : AVC
Формат/Информация : Advanced Video Codec
Профиль формата : High@L4
Настройки формата : CABAC / 4 Ref Frames
Параметр CABAC формата : Да
Параметр RefFrames формата : 4 кадра
Идентификатор кодека : V_MPEG4/ISO/AVC
Продолжительность : 2 ч. 13 м.
Вид битрейта : Переменный
Битрейт : 5520 Кбит/сек
Максимальный битрейт : 15,0 Мбит/сек
Ширина : 1920 пикселей
Высота : 1080 пикселей
Соотношение сторон : 16:9
Режим частоты кадров : Постоянный
Частота кадров : 23,976 (24000/1001) кадра/сек
Цветовое пространство : YUV
Субдискретизация насыщенности : 4:2:0
Битовая глубина : 8 бит
Тип развёртки : Прогрессивная
Бит/(Пиксели*Кадры) : 0.111
Размер потока : 5,15 Гбайт (90%)
Язык : English
Default : Да
Forced : Нет
Цветовой диапазон : Limited
Основные цвета : BT.709
Характеристики трансфера : BT.709
Коэффициенты матрицы : BT.709

Аудио
Идентификатор : 2
Формат : E-AC-3
Формат/Информация : Enhanced Audio Coding 3
Параметр Endianness формата : Big
Идентификатор кодека : A_EAC3
Продолжительность : 2 ч. 13 м.
Вид битрейта : Постоянный
Битрейт : 640 Кбит/сек
Каналы : 6 каналов
Расположение каналов : Front: L C R, Side: L R, LFE
Частота : 48,0 КГц
Частота кадров : 187,500 кадров/сек (256 SPF)
Метод сжатия : С потерями
Задержка видео : 6 мс.
Размер потока : 611 Мбайт (10%)
Язык : English
ServiceKind/String : Complete Main
Default : Да
Forced : Нет

Текст
Идентификатор : 3
Формат : UTF-8
Идентификатор кодека : S_TEXT/UTF8
Идентификатор кодека/Информация : UTF-8 Plain Text
Продолжительность : 2 ч. 12 м.
Битрейт : 67 бит/сек
ElementCount : 2066
Размер потока : 65,8 Кбайт (0%)
Язык : English
Default : Нет
Forced : Нет

Меню
00:00:00.000 : en:Studio Logos
00:00:35.990 : en:Toomes loses a job and gains a new one
00:04:55.990 : en:Marvel Logo
00:05:30.990 : en:a Film by Peter Parker
00:09:53.990 : en:Peter waits the school day out
00:14:31.990 : en:Spider-Man keeps the neighborhood friendly
00:18:04.990 : en:Spider-Man battles the Avengers
00:20:48.990 : en:Peter finds a surprise at home
00:25:42.990 : en:Ned asks for all the details
00:29:08.990 : en:Peter debates bringing Spider-Man to the party
00:31:59.990 : en:Spider-Man chases after a van
00:36:45.990 : en:Tony instructs Peter to stand down
00:39:16.990 : en:Toomes attempts to reason with his crew
00:42:22.990 : en:Ned helps Peter with a shop project
00:46:01.990 : en:Peter rejoins the team
00:50:11.990 : en:Spider-Man makes a new friend while tracking bad guys
00:54:37.990 : en:Spider-Man races back to his team
00:58:46.990 : en:The Decathlon Team celebrates at the Washington Monument
01:05:07.990 : en:Toomes contemplates his recent run of bad luck
01:06:12.990 : en:The Decathlon team is welcomed back as heroes
01:08:37.990 : en:Peter tries out interrogation mode
01:12:00.990 : en:Spider-Man commutes on the ferry
01:19:40.990 : en:Toomes calls for a bigger job
01:20:17.990 : en:Perter faces the consequences of his mistake
01:23:32.990 : en:Peter turns himself around
01:26:54.990 : en:Peter meets Liz's family
01:29:39.990 : en:Toomes gives Peter the Dad talk
01:34:10.990 : en:Peter leaves the dance early
01:36:36.990 : en:Ned gives Spider-Man directions
01:39:17.990 : en:Spider-Man locates the Vulture's lair
01:42:22.990 : en:Peter picks himself up
01:44:41.990 : en:Vulture takes to the sky
01:50:23.990 : en:Spider-Man and Vulture battle
01:54:28.990 : en:Peter says a difficult goodbye
01:55:59.990 : en:The Decathlon Team celebrates their win
01:57:51.990 : en:Tony makes Peter an offer
02:02:15.990 : en:Peter suits up
02:02:53.990 : en:End Credits
02:05:02.990 : en:Toomes encounters a former business partner
02:05:56.990 : en:End Credits Continued
02:12:27.990 : en:Patience
02:13:25.990 : en:a Film by Peter Parker (Extended Director's Cut)
Скриншоты:

Все одноименные релизы в Клубе

Смотреть Online

http://moonwalk.cc/video/4dbf4aeffe1f577f/iframe
Детали торрента:
Название:Человек-паук: Возвращение домой / Spider-Man: Homecoming (2017) WEB-DL [H.264/1080p-LQ] [EN / EN Sub]
Дата добавления:26 Сен 2017 17:34:04
Размер:5,74 GB
Раздают:1
Качают:8
Форум:Фильмы в оригинале

All rights reserved © 2015-2018