TORRENTS43.XYZ

Скачать Путешествие времени / Voyage of Time: Life's Journey (2016) BDRemux [H.264/1080p]


Путешествие времени / Voyage of Time: Life's Journey (2016) BDRemux
Производство: Франция, Германия, США
Жанр: Документальный, фэнтези

Режиссер: Терренс Малик
Актеры: Кейт Бланшетт, Джамал Кавил, Мэйша Диатта, Ягази Эмези, Дэрил Джеймс Харрис II, Себастьян Джексон, Абрахам Косгей, Руна Люсьенн, Тео Бонгани Ндьяльване, Жежуан Плэр

Описание: Невероятное путешествие в прошлое нашей планеты. Фильм, пропитанный энергией самой природы, сочетает в себе новаторские спецэффекты и удивительные кадры, снятые в разных уголках земного шара в попытках зафиксировать то, что живет веками и неподвластно времени.
История рождения Земли. Движения звезд и континентов. Древние вулканы. Рождение рыб, лесов, динозавров и человека с его страстным желанием дотянуться до всего. Это подлинный гимн природе, жизни и Вселенной!


Возраст: 6+ (зрителям, достигшим 6 лет)
Рейтинг MPAA: PG-13 (детям до 13 лет просмотр нежелателен)

Продолжительность: 01:28:53
Качество видео: BDRemux 1080p
Перевод: Дублированный x 2
Субтитры: Английские

Видео: AVC, 1920x1080 (16:9), 23.976 fps, 26.0 Mbps (0.523 bit/pixel)
Аудио #1: AC-3, 48.0 KHz, 6 ch, 448 Kbps, CBR | Дублированный (Кинопремьера HD)
Аудио #2: AC-3, 48.0 KHz, 2 ch, 256 Kbps, CBR | Дублированный (iTunes)
Аудио #3: DTS MA / Core, 48.0 KHz, 6 ch, 1 561 Kbps / 1 510 Kbps, VBR | Английский

MediaInfo:


Общее
Уникальный идентификатор : 194098153964105285017217745356939066416 (0x9205F1D701707C89BAA2B53B7A9BFC30)
Полное имя : D:\NNM\Путешествие времени\Puteshestvie vremeni 2016 BDRemux 1080p.mkv
Формат : Matroska
Версия формата : Version 4 / Version 2
Размер файла : 18,6 Гбайт
Продолжительность : 1 ч. 28 м.
Режим общего битрейта : Переменный
Общий поток : 30,0 Мбит/сек
Дата кодирования : UTC 2017-09-19 10:54:35
Программа кодирования : mkvmerge v15.0.0 ('Duel with the Devil') 64-bit
Библиотека кодирования : libebml v1.3.5 + libmatroska v1.4.5

Видео
Идентификатор : 1
Формат : AVC
Формат/Информация : Advanced Video Codec
Профиль формата : High@L4.1
Параметр CABAC формата : Да
Параметр ReFrames формата : 3 кадра
Идентификатор кодека : V_MPEG4/ISO/AVC
Продолжительность : 1 ч. 28 м.
Вид битрейта : Переменный
Битрейт : 26,0 Мбит/сек
Максимальный битрейт : 39,0 Мбит/сек
Ширина : 1920 пикселей
Высота : 1080 пикселей
Соотношение сторон : 16:9
Режим частоты кадров : Постоянный
Частота кадров : 23,976 (24000/1001) кадра/сек
Цветовое пространство : YUV
Субдискретизация насыщенности : 4:2:0
Битовая глубина : 8 бит
Тип развёртки : Прогрессивная
Бит/(Пиксели*Кадры) : 0.523
Размер потока : 16,1 Гбайт (86%)
Библиотека кодирования : x264 core 146 r2538 121396c
Настройки программы : cabac=1 / ref=8 / deblock=1:-1:-1 / analyse=0x3:0x133 / me=umh / subme=10 / psy=1 / psy_rd=1.00:0.15 / mixed_ref=1 / me_range=24 / chroma_me=1 / trellis=2 / 8x8dct=1 / cqm=0 / deadzone=21,11 / fast_pskip=1 / chroma_qp_offset=-3 / threads=48 / lookahead_threads=4 / sliced_threads=0 / slices=4 / nr=0 / decimate=1 / interlaced=0 / bluray_compat=1 / constrained_intra=0 / bframes=3 / b_pyramid=1 / b_adapt=2 / b_bias=0 / direct=3 / weightb=1 / open_gop=1 / weightp=1 / keyint=24 / keyint_min=1 / scenecut=40 / intra_refresh=0 / rc_lookahead=24 / rc=2pass / mbtree=1 / bitrate=26000 / ratetol=1.0 / qcomp=0.60 / qpmin=0 / qpmax=69 / qpstep=4 / cplxblur=20.0 / qblur=0.5 / vbv_maxrate=39000 / vbv_bufsize=30000 / nal_hrd=vbr / filler=0 / ip_ratio=1.40 / aq=1:1.00
Язык : English
Default : Да
Forced : Нет
Цветовой диапазон : Limited
Основные цвета : BT.709
Характеристики трансфера : BT.709
Коэффициенты матрицы : BT.709

Аудио #1
Идентификатор : 2
Формат : AC-3
Формат/Информация : Audio Coding 3
Расширение режима : CM (complete main)
Параметр Endianness формата : Big
Идентификатор кодека : A_AC3
Продолжительность : 1 ч. 28 м.
Вид битрейта : Постоянный
Битрейт : 448 Кбит/сек
Каналы : 6 каналов
Расположение каналов : Front: L C R, Side: L R, LFE
Частота : 48,0 КГц
Частота кадров : 31,250 кадров/сек (1536 spf)
Битовая глубина : 16 бит
Метод сжатия : С потерями
Размер потока : 285 Мбайт (1%)
Заголовок : Dub [Кинопремьера HD]
Язык : Russian
Default : Да
Forced : Нет

Аудио #2
Идентификатор : 3
Формат : AC-3
Формат/Информация : Audio Coding 3
Расширение режима : CM (complete main)
Параметр Endianness формата : Big
Идентификатор кодека : A_AC3
Продолжительность : 1 ч. 28 м.
Вид битрейта : Постоянный
Битрейт : 256 Кбит/сек
Каналы : 2 канала
Расположение каналов : Front: L R
Частота : 48,0 КГц
Частота кадров : 31,250 кадров/сек (1536 spf)
Битовая глубина : 16 бит
Метод сжатия : С потерями
Размер потока : 163 Мбайт (1%)
Заголовок : iTunes
Язык : Russian
Default : Нет
Forced : Нет

Аудио #3
Идентификатор : 4
Формат : DTS
Формат/Информация : Digital Theater Systems
Профиль формата : MA / Core
Режим : 16
Параметр Endianness формата : Big
Идентификатор кодека : A_DTS
Продолжительность : 1 ч. 28 м.
Вид битрейта : Переменный / Постоянный
Битрейт : 3368 Кбит/сек / 1509 Кбит/сек
Каналы : 6 каналов
Расположение каналов : Front: L C R, Side: L R, LFE
Частота : 48,0 КГц
Частота кадров : 93,750 кадра/сек (512 spf)
Битовая глубина : 24 бит
Метод сжатия : Без потерь / Lossy
Размер потока : 2,09 Гбайт (11%)
Заголовок : Original
Язык : English
Default : Нет
Forced : Нет

Текст
Идентификатор : 5
Формат : UTF-8
Идентификатор кодека : S_TEXT/UTF8
Идентификатор кодека/Информация : UTF-8 Plain Text
Продолжительность : 1 ч. 22 м.
Битрейт : 3 бит/сек
Count of elements : 153
Размер потока : 2,09 Кбайт (0%)
Заголовок : Full
Язык : English
Default : Нет
Forced : Нет

Меню
00:00:00.000 : en:Chapter 1
00:11:59.427 : en:Chapter 2
00:22:30.640 : en:Chapter 3
00:33:56.075 : en:Chapter 4
00:45:04.535 : en:Chapter 5
00:55:10.348 : en:Chapter 6
01:06:25.022 : en:Chapter 7
01:15:21.892 : en:Chapter 8
01:23:48.148 : en:Chapter 9
Скриншоты:


Все релизы фильма «Путешествие времени» на Torrents43.xyz

Смотреть Online

http://moonwalk.cc/video/736e59429c90ade3/iframe
Детали торрента:
Название:Путешествие времени / Voyage of Time: Life's Journey (2016) BDRemux [H.264/1080p]
Дата добавления:20 Сен 2017 12:30:22
Размер:18,6 GB
Раздают:6
Качают:0
Форум:Документалистика и Телепередачи

All rights reserved © 2015-2018