TORRENTS43.XYZ

Скачать Орел и решка. Перезагрузка (2017.09.17) WEB-DL [H.264/720p-LQ] (сезон 14: Шанхай, Китай)


Орел и решка. Перезагрузка (2017.09.17) WEB-DL [H.264/720p-LQ] (сезон 14: Шанхай, Китай)
Телекомпания: ИНТЕР
Жанр: Реалити-шоу, путешествия, география, познавательный

Ведущий: Настя Ивлеева и Антон Птушкин

Описание:
Шесть лет назад команда проекта "Орел и решка" впервые отправилась в большое путешествие по самым интересным городам нашей планеты. За прошедшее время в них столько всего изменилось, что создатели шоу решили приехать сюда снова. "Орел и решка" объявляет перезагрузку! Телезрителей ждет встреча с невиданными чудесами, новыми незабываемыми впечатлениями и самое главное - с новыми ведущими!


Возраст: 12+ (зрителям, достигшим 12 лет)

Релиз от: svlesin
Продолжительность: ~ 00:46:05
Качество видео: WEB-DL
Субтитры: Отсутствуют

Видео: AVC, 1280x720 (16:9), 25.000 fps, 1 700 Kbps (0.074 bit/pixel)
Аудио: AC-3, 44.1 KHz, 2 ch, 192 Kbps, CBR

Mediainfo:

Код: выделить все
 Общее
Уникальный идентификатор                 : 203045539534077341735415527201776465918 (0x98C12601E31617CFBCD9775518A1F7FE)
Полное имя                               : D:\[1]\Орел и решка\Орел и решка. Перезагрузка (2017.09.17)_720 - Шанхай_Китай.mkv
Формат                                   : Matroska
Версия формата                           : Version 4 / Version 2
Размер файла                             : 636 Мбайт
Продолжительность                        : 46 м.
Общий поток                              : 1931 Кбит/сек
Название фильма                          : Орел и решка. Перезагрузка (2017.09.17)_720 - Шанхай_Китай_torrents43.xyz
Дата кодирования                         : UTC 2017-09-17 09:33:42
Программа кодирования                    : mkvmerge v15.0.0 ('Duel with the Devil') 64-bit
Библиотека кодирования                   : libebml v1.3.5 + libmatroska v1.4.5
DURATION                                 : 00:46:04.800000000
NUMBER_OF_FRAMES                         : 79380
NUMBER_OF_BYTES                          : 66355200
_STATISTICS_WRITING_APP                  : mkvmerge v15.0.0 ('Duel with the Devil') 64-bit
_STATISTICS_WRITING_DATE_UTC             : 2017-09-17 09:33:42
_STATISTICS_TAGS                         : BPS DURATION NUMBER_OF_FRAMES NUMBER_OF_BYTES

Видео
Идентификатор                            : 1
Формат                                   : AVC
Формат/Информация                        : Advanced Video Codec
Профиль формата                          : Main@L3.1
Параметр CABAC формата                   : Да
Параметр ReFrames формата                : 3 кадра
Идентификатор кодека                     : V_MPEG4/ISO/AVC
Продолжительность                        : 46 м.
Битрейт                                  : 1700 Кбит/сек
Ширина                                   : 1280 пикселей
Высота                                   : 720 пикселей
Соотношение сторон                       : 16:9
Режим частоты кадров                     : Постоянный
Частота кадров                           : 25,000 кадров/сек
Цветовое пространство                    : YUV
Субдискретизация насыщенности            : 4:2:0
Битовая глубина                          : 8 бит
Тип развёртки                            : Прогрессивная
Бит/(Пиксели*Кадры)                      : 0.074
Размер потока                            : 560 Мбайт (88%)
Default                                  : Нет
Forced                                   : Нет
Цветовой диапазон                        : Limited
Основные цвета                           : BT.709
Характеристики трансфера                 : BT.709
Коэффициенты матрицы                     : BT.709
DURATION                                 : 00:46:04.800000000
NUMBER_OF_FRAMES                         : 69120
NUMBER_OF_BYTES                          : 600283818
_STATISTICS_WRITING_APP                  : mkvmerge v15.0.0 ('Duel with the Devil') 64-bit
_STATISTICS_WRITING_DATE_UTC             : 2017-09-17 09:33:42
_STATISTICS_TAGS                         : BPS DURATION NUMBER_OF_FRAMES NUMBER_OF_BYTES

Аудио
Идентификатор                            : 2
Формат                                   : AC-3
Формат/Информация                        : Audio Coding 3
Расширение режима                        : CM (complete main)
Параметр Endianness формата              : Big
Идентификатор кодека                     : A_AC3
Продолжительность                        : 46 м.
Вид битрейта                             : Постоянный
Битрейт                                  : 192 Кбит/сек
Каналы                                   : 2 канала
Расположение каналов                     : Front: L R
Частота                                  : 44,1 КГц
Битовая глубина                          : 16 бит
Метод сжатия                             : С потерями
Задержка видео                           : -200 мс.
Размер потока                            : 63,3 Мбайт (10%)
Default                                  : Да
Forced                                   : Нет
 

В выпуске:

Антон Птушкин и Настя Ивлеева проведут уик-энд в самом большом городе планеты - Шанхае. Это китайский Вавилон! Здесь живет 25 миллионов человек. На его территории можно вместить четыре Киева, четыре Харькова и еще хватит места на четырнадцать Винниц. Ведущие прокатятся на самом быстром поезде в мире, который едет со скоростью 430 километров в час! Проведут ночь в 7-звездочном отеле в самом дорогом номере стоимостью 21 тыс. долларов в сутки. Испытают, что чувствует человек во время смерти и после нее на аттракционе "Симулятор смерти". Посмотрят на Шанхай с самой высокой смотровой площадки в мире. А чтобы увидеть настоящий старый Шанхай, посетят местные трущобы и древний городок на воде - Чжудзядзяо.
Скриншоты:



Все одноименные релизы в Клубе
Детали торрента:
Название:Орел и решка. Перезагрузка (2017.09.17) WEB-DL [H.264/720p-LQ] (сезон 14: Шанхай, Китай)
Дата добавления:17 Сен 2017 14:15:58
Размер:636 MB
Раздают:2
Качают:0
Форум:Клуб кинопутешествий

All rights reserved © 2015-2018