TORRENTS43.XYZ

Скачать Во всем виноват енот / Wakefield (2016) WEB-DLRip [576p] iPad


Во всем виноват енот / Wakefield (2016) WEB-DLRip [576p] iPad
«What would your life be like without you ?»

Год выпуска: 2016
Производство: США
Жанр: Драма
Продолжительность: 01:48:41

Перевод: Дублированный (iTunes)
Субтитры: Нет
Режиссер: Робин Суикорд
Актеры: Брайан Крэнстон, Йен Энтони Дэйл, Дженнифер Гарнер, Беверли Д’Анджело, Джейсон О’Мара, Пиппа Беннетт-Уорнер, Эллери Спрейберри, Виктория Бруно, Моника Лосон, Исаак Лейва

Мировая премьера: 2 сентября 2016



Описание: Говард Уэйкфилд, преуспевающий юрист, верный муж, заботливый отец двух дочерей, однажды круто изменил свою жизнь. Это произошло внезапно, когда он подходил к родному роскошному гнездышку в пригороде Нью-Йорка. Погнавшись за наглым енотом, сидевшим у него на пути, Уэйкфилд оказался на чердаке заброшенного гаража, откуда были видны светящиеся окна его гостиной. Накрыт стол, домочадцы ждут отца. «А что будет, если я пропаду? Будут ли плакать любящие крошки? Быстро ли жена найдет мне замену? Помрут ли они с голоду без моих доходов?» — подумал Говард и решил… остаться жить на чердаке.
Качество: WEB-DLRip 576p
Контейнер: M4V
Видео: H.264, 1024x432, 2.40:1, 2 200 Kbps, 23.976 fps

Аудио: Русский/Дублированный (iTunes), AAC / 2.0 / 128 Kbps / 48.0 KHz

iTunes Meta Tags

Код: выделить все

Sort Name: Wakefield
XID: Apple:vendor_id:2016-945153
contentID: 1250894395
Copyright: © 2016 WAKEFIELD PRODUCTIONS, LLC All rights reserved.
Screenwriters: Робин Суикорд
Producers: Бонни Кертис, Венди Федерман, Джули Линн
Director: Робин Суикорд
Cast: Брайан Крэнстон, Йен Энтони, Дэйл, Дженнифер Гарнер, Беверли Д’Анджело, Джейсон О’Мара, Пиппа Беннетт-Уорнер, Эллери Спрейберри, Виктория Бруно, Моника Лосон, Исаак Лейва
Studio: IFC Films
Rating Annotation: Rated R for some sexual material and language.
Rating: 5
Long Description: Говард Уэйкфилд, преуспевающий юрист, верный муж, заботливый отец двух дочерей, однажды круто изменил свою жизнь. Это произошло внезапно, когда он подходил к родному роскошному гнездышку в пригороде Нью-Йорка. Погнавшись за наглым енотом, сидевшим у него на пути, Уэйкфилд оказался на чердаке заброшенного гаража, откуда были видны светящиеся окна его гостиной. Накрыт стол, домочадцы ждут отца. «А что будет, если я пропаду? Будут ли плакать любящие крошки? Быстро ли жена найдет мне замену? Помрут ли они с голоду без моих доходов?» - подумал Говард и решил… остаться жить на чердаке.
Description: Говард Уэйкфилд, преуспевающий юрист, верный муж, заботливый отец двух дочерей, однажды круто изменил свою жизнь.
Release Date: 2016-09-02T08:00:00Z
Genre: Drama
Artist: Robin Swicord
Name: Wakefield

MediaInfo

Код: выделить все

General
Complete name : /Users/imac/HandBrake/Wakefield.(576p).(pk).m4v
Format : MPEG-4
Codec ID : M4V
File size : 1.77 GiB
Duration : 1h 48mn
Overall bit rate mode : Variable
Overall bit rate : 2 332 Kbps
Movie name : Wakefield
Performer : Robin Swicord
Director : Робин Суикорд
Actor : Брайан Крэнстон / Йен Энтони / Дэйл / Дженнифер Гарнер / Беверли Д’Анджело / Джейсон О’Мара / Пиппа Беннетт-Уорнер / Эллери Спрейберри / Виктория Бруно / Моника Лосон / Исаак Лейва
Screenplay by : Робин Суикорд
Producer : Бонни Кертис / Венди Федерман / Джули Линн
Production studio : IFC Films
Genre : Drama
ContentType : Short Film
Description : Говард Уэйкфилд, преуспевающий юрист, верный муж, заботливый отец двух дочерей, однажды круто изменил свою жизнь.
Recorded date : UTC 2016-09-02 08:00:00
Encoded date : UTC 2017-08-20 09:41:41
Tagged date : UTC 2017-08-20 09:42:54
Copyright : © 2016 WAKEFIELD PRODUCTIONS, LLC All rights reserved.
Cover : Yes
Rating : None
Title/Sort : Wakefield
LongDescription : Говард Уэйкфилд, преуспевающий юрист, верный муж, заботливый отец двух дочерей, однажды круто изменил свою жизнь. Это произошло внезапно, когда он подходил к родному роскошному гнездышку в пригороде Нью-Йорка. Погнавшись за наглым енотом, сидевшим у него на пути, Уэйкфилд оказался на чердаке заброшенного гаража, откуда были видны светящиеся окна его гостиной. Накрыт стол, домочадцы ждут отца. «А что будет, если я пропаду? Будут ли плакать любящие крошки? Быстро ли жена найдет мне замену? Помрут ли они с голоду без моих доходов?» - подумал Говард и решил… остаться жить на чердаке.
AppleStoreCatalogID : 1250894395
Vendor : Apple:vendor_id:2016-945153
ContentRating : mpaa|R|400|Rated R for some sexual material and language.

Video #1
ID : 1
Format : AVC
Format/Info : Advanced Video Codec
Format profile : High@L3.1
Format settings, CABAC : Yes
Format settings, ReFrames : 9 frames
Codec ID : avc1
Codec ID/Info : Advanced Video Coding
Duration : 1h 48mn
Source duration : 1h 48mn
Bit rate : 2 200 Kbps
Width : 1 024 pixels
Height : 432 pixels
Display aspect ratio : 2.40:1
Frame rate mode : Variable
Frame rate : 23.976 fps
Minimum frame rate : 23.974 fps
Maximum frame rate : 23.981 fps
Color space : YUV
Chroma subsampling : 4:2:0
Bit depth : 8 bits
Scan type : Progressive
Bits/(Pixel*Frame) : 0.207
Stream size : 1.67 GiB (94%)
Source stream size : 1.67 GiB (94%)
Title : Main Program
Writing library : x264 core 148 r2708 86b7198
Encoding settings : cabac=1 / ref=9 / deblock=1:0:0 / analyse=0x3:0x113 / me=umh / subme=9 / psy=1 / psy_rd=1.00:0.00 / mixed_ref=1 / me_range=32 / chroma_me=1 / trellis=1 / 8x8dct=1 / cqm=0 / deadzone=21,11 / fast_pskip=1 / chroma_qp_offset=-2 / threads=13 / lookahead_threads=1 / sliced_threads=0 / nr=0 / decimate=1 / interlaced=0 / bluray_compat=0 / constrained_intra=0 / bframes=6 / b_pyramid=2 / b_adapt=2 / b_bias=0 / direct=1 / weightb=1 / open_gop=0 / weightp=2 / keyint=240 / keyint_min=24 / scenecut=40 / intra_refresh=0 / rc_lookahead=40 / rc=2pass / mbtree=1 / bitrate=2200 / ratetol=1.0 / qcomp=0.60 / qpmin=0 / qpmax=69 / qpstep=4 / cplxblur=20.0 / qblur=0.5 / ip_ratio=1.40 / aq=1:1.00
Language : English
Encoded date : UTC 2017-08-20 09:41:41
Tagged date : UTC 2017-08-20 09:41:45
Color range : Limited
Color primaries : BT.709
Transfer characteristics : BT.709
Matrix coefficients : BT.709

Video #2
ID : 4
Format : JPEG
Codec ID : jpeg
Duration : 1h 48mn
Bit rate mode : Variable
Bit rate : 732 bps
Width : 640 pixels
Height : 270 pixels
Display aspect ratio : 2.40:1
Frame rate mode : Variable
Frame rate : 0.003 fps
Minimum frame rate : 0.002 fps
Maximum frame rate : 0.004 fps
Color space : YUV
Chroma subsampling : 4:2:0
Bit depth : 8 bits
Compression mode : Lossy
Bits/(Pixel*Frame) : 1.412
Stream size : 536 KiB (0%)
Title : Chapter Images
Language : English
Encoded date : UTC 2017-08-20 09:41:51
Tagged date : UTC 2017-08-20 09:41:51

Audio
ID : 2
Format : AAC
Format/Info : Advanced Audio Codec
Format profile : LC
Codec ID : 40
Duration : 1h 48mn
Bit rate mode : Variable
Bit rate : 126 Kbps
Maximum bit rate : 193 Kbps
Channel(s) : 2 channels
Channel positions : Front: L R
Sampling rate : 48.0 KHz
Compression mode : Lossy
Stream size : 98.0 MiB (5%)
Title : Russian Stereo
Language : Russian
Encoded date : UTC 2017-08-20 09:41:41
Tagged date : UTC 2017-08-20 09:41:47

Menu #1
00:00:00.000 : 1
00:07:14.208 : 2
00:12:40.999 : 3
00:19:36.665 : 4
00:26:00.706 : 5
00:31:58.997 : 6
00:37:56.247 : 7
00:42:44.747 : 8
00:48:19.372 : 9
00:56:05.622 : 10
01:02:19.288 : 11
01:06:54.746 : 12
01:12:00.662 : 13
01:17:15.787 : 14
01:22:34.870 : 15
01:27:26.911 : 16
01:34:01.327 : 17
01:38:51.827 : 18

Menu #2
ID : 3
Codec ID : text
Duration : 1h 48mn
Language : English
Encoded date : UTC 2017-08-20 09:41:47
Tagged date : UTC 2017-08-20 09:41:47
00:00:00.000 : 1
00:07:14.208 : 2
00:12:40.999 : 3
00:19:36.665 : 4
00:26:00.706 : 5
00:31:58.997 : 6
00:37:56.247 : 7
00:42:44.747 : 8
00:48:19.372 : 9
00:56:05.622 : 10
01:02:19.288 : 11
01:06:54.746 : 12
01:12:00.662 : 13
01:17:15.787 : 14
01:22:34.870 : 15
01:27:26.911 : 16
01:34:01.327 : 17
01:38:51.827 : 18
Bit rate mode : VBR

x264 лог

Код: выделить все

x264 [info]: frame I:1216  Avg QP: 9.58  size: 80908
x264 [info]: frame P:38826 Avg QP:12.36  size: 24153
x264 [info]: frame B:116326 Avg QP:14.54  size:  6502
x264 [info]: consecutive B-frames:  1.6%  3.2%  5.5% 65.6%  8.2% 10.8%  5.1%
x264 [info]: mb I  I16..4:  8.6% 70.3% 21.1%
x264 [info]: mb P  I16..4:  0.9%  7.1%  1.5%  P16..4: 31.7% 30.4% 22.8%  0.0%  0.0%    skip: 5.6%
x264 [info]: mb B  I16..4:  0.1%  0.6%  0.2%  B16..8: 32.6% 14.2%  4.3%  direct: 6.7%  skip:41.4%  L0:43.6% L1:42.9% BI:13.5%
x264 [info]: 8x8 transform intra:73.4% inter:62.1%
x264 [info]: coded y,uvDC,uvAC intra: 89.2% 90.5% 82.0% inter: 29.6% 26.4% 9.1%
x264 [info]: i16 v,h,dc,p: 33% 12% 12% 43%
x264 [info]: i8 v,h,dc,ddl,ddr,vr,hd,vl,hu: 13% 10% 11%  9% 11% 12% 11% 12% 13%
x264 [info]: i4 v,h,dc,ddl,ddr,vr,hd,vl,hu: 11%  9%  4%  9% 14% 14% 13% 12% 13%
x264 [info]: i8c dc,h,v,p: 52% 19% 17% 12%
x264 [info]: Weighted P-Frames: Y:1.8% UV:0.9%
x264 [info]: ref P L0: 53.1%  6.1% 16.9%  7.2%  5.3%  4.1%  3.4%  2.0%  1.9%  0.1%  0.0%
x264 [info]: ref B L0: 73.1% 12.3%  5.9%  2.9%  2.2%  1.9%  1.2%  0.4%
x264 [info]: ref B L1: 94.8%  5.2%
x264 [info]: kb/s:2198.83

Скриншоты:



Все одноименные релизы в Клубе


Релиз подготовлен для просмотра на Apple TV, iPad, iPhone, iPod Touch.
Для просмотра данного релиза на компьютере с ОС Windows рекомендуется использовать VLC media player

Смотреть Online

http://moonwalk.cc/video/abb8e5963b196b2f/iframe
Детали торрента:
Название:Во всем виноват енот / Wakefield (2016) WEB-DLRip [576p] iPad
Дата добавления:20 Авг 2017 13:16:43
Размер:1,77 GB
Раздают:6
Качают:0
Форум:Зарубежное видео для устройств Apple

All rights reserved © 2015-2018