TORRENTS43.XYZ

Скачать Орел и решка. Рай и ад (2017.06.25) WEB-DLRip (сезон 13: Райский Корфу)


Орел и решка. Рай и ад (2017.06.25) WEB-DLRip (сезон 13: Райский Корфу)
Телекомпания: ИНТЕР
Жанр: Реалити-шоу, путешествия, география, познавательный

Ведущий: Регина Тодоренко и Леся Никитюк

Описание:
После нелегкого испытания под названием «Кругосветка» ведущие Регина Тодоренко и Леся Никитюк снова вместе отправляются в путешествие. В 13-м сезоне проекта они посетят самые райские и самые адские уголки нашей планеты. Их ждут волшебные тропические курорты и самые опасные места на Земле.
В первом выпуске шоу Орел и решка. Рай и ад Леся и Регина будут искать рай в Таиланде. На популярном курорте, в городе Паттайе, их ждут роскошные пляжи, живописные лагуны, экзотика и полный релакс. И в то же время – шум, гам, экстрим, шоу ледибоев и развлечения для взрослых.


Возраст: 12+ (зрителям, достигшим 12 лет)

Релиз от: svlesin
Продолжительность: ~ 00:48:04
Качество видео: WEB-DLRip
Субтитры: Отсутствуют

Видео: MPEG4, XviD, 720x400 (16:9), 25.000 fps, 1 798 Kbps (0.250 bit/pixel)
Аудио: AC-3, 44.1 KHz, 2 ch, 192 Kbps, CBR

Mediainfo:

Код: выделить все
 Общее
Полное имя                               : D:\[1]\Орел и решка\Орел и решка. Рай и ад (2017.06.25) - Райский Корфу.avi
Формат                                   : AVI
Формат/Информация                        : Audio Video Interleave
Размер файла                             : 688 Мбайт
Продолжительность                        : 48 м. 4 с.
Общий поток                              : 2000 Кбит/сек
Название фильма                          : Orel I reshka. Rai I ad (2017.06.25) - Raiskii Korfu_torrents43.xyz
Программа кодирования                    : Lavf57.71.100

Видео
Идентификатор                            : 0
Формат                                   : MPEG-4 Visual
Профиль формата                          : Advanced Simple@L5
Параметр BVOP формата                    : 1
Параметр QPel формата                    : Нет
Параметр GMC формата                     : Без точки перехода
Параметр матрицы формата                 : Default (H.263)
Идентификатор кодека                     : XVID
Идентификатор кодека/Подсказка           : XviD
Продолжительность                        : 48 м. 4 с.
Битрейт                                  : 1798 Кбит/сек
Ширина                                   : 720 пикселей
Высота                                   : 400 пикселей
Соотношение сторон                       : 16:9
Частота кадров                           : 25,000 кадров/сек
Цветовое пространство                    : YUV
Субдискретизация насыщенности            : 4:2:0
Битовая глубина                          : 8 бит
Тип развёртки                            : Прогрессивная
Метод сжатия                             : С потерями
Бит/(Пиксели*Кадры)                      : 0.250
Размер потока                            : 618 Мбайт (90%)
Библиотека кодирования                   : XviD 67

Аудио
Идентификатор                            : 1
Формат                                   : AC-3
Формат/Информация                        : Audio Coding 3
Параметр Endianness формата              : Big
Идентификатор кодека                     : 2000
Продолжительность                        : 48 м. 4 с.
Вид битрейта                             : Постоянный
Битрейт                                  : 192 Кбит/сек
Каналы                                   : 2 канала
Расположение каналов                     : Front: L R
Частота                                  : 44,1 КГц
Частота кадров                           : 28,711 кадров/сек (1536 spf)
Битовая глубина                          : 16 бит
Метод сжатия                             : С потерями
Размер потока                            : 66,0 Мбайт (10%)
Выравнивание                             : Соединение по промежуткам
Продолжительность промежутка             : 35  мс. (0,87 видеокадр)
ServiceKind/String                       : Complete Main
 

В выпуске:

Леся Никитюк и Регина Тодоренко на самом зеленом греческом острове - Корфу. И это финальный выпуск сезона "Орёл и Решка. Рай и Ад". Остров Корфу - это райское место для туристов-гурманов. Сюда едут не пляжники и тусовщики, а настоящие ценители красоты и качественного отдыха. Райский Корфу или, как его называют сами греки, Керкира стал для команды Орла и Решки настоящим кладезем греческих мифов и легенд. Будь-то богатая ведущая, которая рассекала по острову на кабриолете и плавала по морю на яхте, или же бедная, которой пришлось исследовать Корфу со ста долларами в кармане... На каждом шагу их ждали красивые история о временах Зевса и Посейдона, когда Земля была молодой и люди верили в богов! Итак, добро пожаловать на остров Корфу - Рай среди Ионического моря, утопающий в зелени оливковых рощ, кипарисовых лесов и апельсиновых садов!
Скриншоты:


Все одноименные релизы в Клубе
Детали торрента:
Название:Орел и решка. Рай и ад (2017.06.25) WEB-DLRip (сезон 13: Райский Корфу)
Дата добавления:25 Июн 2017 16:49:55
Размер:688 MB
Раздают:
Качают:0
Форум:Клуб кинопутешествий

All rights reserved © 2015-2018