TORRENTS43.XYZ

Скачать Наполеон: Русская кампания 1812 года / Napoleon: the Russian campaign (2013) HDTVRip [H.264/1080p-LQ] (2 серии из 2)


Наполеон: Русская кампания 1812 года / Napoleon: the Russian campaign (2013) HDTVRip [H.264/1080p-LQ] (2 серии из 2)
Телекомпания: Франция, Arte France, Docside Zed
Жанр: Документальный, постановочный, историческая реконструкция

Описание:
Мечты Наполеона войти в Москву с триумфом быстро развеялись, когда 14 сентября 1812 он оказался в пустом городе, спаленном пожаром. В 1812 году Наполеон собирает 600-тысячную армию, состоящую из 24 различных национальностей. Вопреки предупреждениям своих советников, уверенный в победе император идет на Москву. По прошествии 172 дней, Наполеон отступает, оставляя позади 400 тысяч человек пленёнными, ранеными и убитыми. Этот фильм попытается ответить на вопрос: почему Наполеон решил завоевать Россию? И как такой великий полководец допустил столько стратегических ошибок? В фильме также рассказывается о том, каким Наполеона видела его армия, русские и монархи других государств.

Релиз от: alf62

Продолжительность: 2 х ~ 00:51:38
Качество видео: HDTVRip

Перевод: Дублированный

Видео: AVC/H.264, 1920x976, ~4500 kbps
Аудио: AC3, 2 ch, 192 kbps

Список выпусков/серий

1. Москва / The Moscova
2. Березина / The Berezina

Mediainfo:


Наполеон.Русская.кампания.(1.серия).Москва.2013.AVC.1080p.x264.HDTVRip.alf62.mkv
Формат : Matroska
Версия формата : Version 2
Размер файла : 1,69 Гбайт
Продолжительность : 51 м.
Общий поток : 4694 Кбит/сек
Дата кодирования : UTC 2017-04-20 14:46:26
Программа кодирования : mkvmerge v7.8.0 ('River Man') 32bit built on Apr 3 2015 12:11:22
Библиотека кодирования : libebml v1.3.1 + libmatroska v1.4.2

Видео
Идентификатор : 1
Формат : AVC
Формат/Информация : Advanced Video Codec
Профиль формата : High@L4.1
Параметр CABAC формата : Да
Параметр ReFrames формата : 9 кадров
Идентификатор кодека : V_MPEG4/ISO/AVC
Продолжительность : 51 м.
Битрейт : 4500 Кбит/сек
Ширина : 1920 пикселей
Высота : 976 пикселей
Соотношение сторон : 1,967
Режим частоты кадров : Постоянный
Частота кадров : 25,000 кадров/сек
Цветовое пространство : YUV
Субдискретизация насыщенности : 4:2:0
Битовая глубина : 8 бит
Тип развёртки : Прогрессивная
Бит/(Пиксели*Кадры) : 0.096
Размер потока : 1,59 Гбайт (94%)
Библиотека кодирования : x264 core 146 r2538 121396c
Настройки программы : cabac=1 / ref=9 / deblock=1:-2:-2 / analyse=0x3:0x113 / me=umh / subme=10 / psy=1 / psy_rd=1.00:0.00 / mixed_ref=1 / me_range=32 / chroma_me=1 / trellis=2 / 8x8dct=1 / cqm=0 / deadzone=21,11 / fast_pskip=0 / chroma_qp_offset=-2 / threads=6 / lookahead_threads=1 / sliced_threads=0 / nr=0 / decimate=0 / interlaced=0 / bluray_compat=0 / constrained_intra=0 / bframes=9 / b_pyramid=2 / b_adapt=2 / b_bias=0 / direct=3 / weightb=1 / open_gop=0 / weightp=2 / keyint=250 / keyint_min=25 / scenecut=40 / intra_refresh=0 / rc_lookahead=40 / rc=2pass / mbtree=0 / bitrate=4500 / ratetol=1.0 / qcomp=0.60 / qpmin=10 / qpmax=51 / qpstep=4 / cplxblur=20.0 / qblur=0.5 / vbv_maxrate=14000 / vbv_bufsize=14000 / nal_hrd=none / filler=0 / ip_ratio=1.40 / pb_ratio=1.30 / aq=1:0.80
Default : Да
Forced : Нет

Аудио
Идентификатор : 2
Формат : AC-3
Формат/Информация : Audio Coding 3
Расширение режима : CM (complete main)
Параметр Endianness формата : Big
Идентификатор кодека : A_AC3
Продолжительность : 51 м.
Вид битрейта : Постоянный
Битрейт : 192 Кбит/сек
Каналы : 2 канала
Расположение каналов : Front: L R
Частота : 48,0 КГц
Битовая глубина : 16 бит
Метод сжатия : С потерями
Размер потока : 70,9 Мбайт (4%)
Default : Да
Forced : Нет
Скриншоты:

Дополнительные скриншоты:





Все одноименные релизы в Клубе
Детали торрента:
Название:Наполеон: Русская кампания 1812 года / Napoleon: the Russian campaign (2013) HDTVRip [H.264/1080p-LQ] (2 серии из 2)
Дата добавления:21 Апр 2017 21:01:08
Размер:3,35 GB
Раздают:1
Качают:0
Форум:История

All rights reserved © 2015-2018