TORRENTS43.XYZ

Скачать Фотоувеличение / Blowup / Blow-Up (1966) BDRemux [H.264/1080p]


Фотоувеличение / Blowup / Blow-Up (1966) BDRemux [H.264/1080p]
Производство: Великобритания, Италия, США
Жанр: Триллер, Драма, Криминал, Детектив

Режиссер: Микеланджело Антониони
Актеры: Дэвид Хеммингс, Ванесса Редгрейв, Сара Майлз, Джон Касл, Джейн Биркин, Джиллиан Хиллс, Питер Боулз, Верушка фон Лендорф, Джулиан Шагрин, Клод Шагрин

Описание:
Главный герой - известный, талантливый молодой фотограф, прототипом которого был то ли Берт Штерн, то ли Дэвид Бейли, что скорее.
Однажды, работая в городском парке, он случайно снимает заинтересовавшую его странную пару. А дальше… через вроде бы романтическое просвечивает вроде бы криминальное… События разворачиваются, ничего не проясняя… На сильно увеличенных кадрах видится то, что простой взгляд не ловит… Или все это только кажется…


Возраст: 16+ (зрителям, достигшим 16 лет)

Релиз от: Torrents43.xyz

Продолжительность: 01:51:42
Качество видео: BDRemux
Перевод: Двуголосый закадровый, авторский одноголосый
Субтитры: Русские, украинские, английские

Видео: AVC/H.264, 1920x1080, ~25.9 Mbps
Аудио: 1 AC3, 2 ch, 192 kbps - Русский, двуголосый (Film Prestige)
Аудио: 2 AC3, 2 ch, 192 kbps - Русский, двуголосый (Some Wax)
Аудио: 3 AC3, 2 ch, 192 kbps - Русский, двуголосый (неопознанный)
Аудио: 4 AC3, 2 ch, 192 kbps - Русский, одноголосый (Алексей Матвеев (Doctor Joker))
Аудио: 5 AC3, 2 ch, 192 kbps - Украинский, многоголосый (ІНТЕР)
Аудио: 6 DTS-HD MA, 1 ch, 1050 kbps - Английский оригинальный
Аудио: 7 AC3, 1 ch, 192 kbps - commentary by Author Peter Brunette

Mediainfo:


Complete name : Blow-Up.(1966).BDRemux.torrents43.xyzv
Format : Matroska
Format version : Version 4 / Version 2
File size : 21.9 GiB
Duration : 1 h 51 min
Overall bit rate mode : Variable
Overall bit rate : 28.1 Mb/s
Movie name : Blow-Up.(1966).BDRemux.torrents43.xyz />Encoded date : UTC 2017-03-30 15:12:21
Writing application : mkvmerge v8.3.0 ('Over the Horizon') 64bit
Writing library : libebml v1.3.1 + libmatroska v1.4.2

Video
ID : 1
Format : AVC
Format/Info : Advanced Video Codec
Format profile : High@L4.1
Format settings, CABAC : Yes
Format settings, ReFrames : 4 frames
Codec ID : V_MPEG4/ISO/AVC
Duration : 1 h 51 min
Bit rate mode : Variable
Bit rate : 25.9 Mb/s
Maximum bit rate : 37.0 Mb/s
Width : 1 920 pixels
Height : 1 080 pixels
Display aspect ratio : 16:9
Frame rate mode : Constant
Frame rate : 23.976 (24000/1001) FPS
Color space : YUV
Chroma subsampling : 4:2:0
Bit depth : 8 bits
Scan type : Progressive
Bits/(Pixel*Frame) : 0.522
Stream size : 20.2 GiB (92%)
Title : Blow-Up.(1966).BDRemux.
Language : English
Default : Yes
Forced : No

Audio #1
ID : 2
Format : AC-3
Format/Info : Audio Coding 3
Mode extension : CM (complete main)
Format settings, Endianness : Big
Codec ID : A_AC3
Duration : 1 h 51 min
Bit rate mode : Constant
Bit rate : 192 kb/s
Channel(s) : 2 channels
Channel positions : Front: L R
Sampling rate : 48.0 kHz
Frame rate : 31.250 FPS (1536 spf)
Bit depth : 16 bits
Compression mode : Lossy
Stream size : 153 MiB (1%)
Title : AC3 2.0 @ 192 kbps - DVO, Film Prestige
Language : Russian
Default : Yes
Forced : No

Audio #2
ID : 3
Format : AC-3
Format/Info : Audio Coding 3
Mode extension : CM (complete main)
Format settings, Endianness : Big
Codec ID : A_AC3
Duration : 1 h 51 min
Bit rate mode : Constant
Bit rate : 192 kb/s
Channel(s) : 2 channels
Channel positions : Front: L R
Sampling rate : 48.0 kHz
Frame rate : 31.250 FPS (1536 spf)
Bit depth : 16 bits
Compression mode : Lossy
Stream size : 153 MiB (1%)
Title : AC3 2.0 @ 192 kbps - DVO, Some Wax
Language : Russian
Default : No
Forced : No

Audio #3
ID : 4
Format : AC-3
Format/Info : Audio Coding 3
Mode extension : CM (complete main)
Format settings, Endianness : Big
Codec ID : A_AC3
Duration : 1 h 51 min
Bit rate mode : Constant
Bit rate : 192 kb/s
Channel(s) : 2 channels
Channel positions : Front: L R
Sampling rate : 48.0 kHz
Frame rate : 31.250 FPS (1536 spf)
Bit depth : 16 bits
Compression mode : Lossy
Stream size : 153 MiB (1%)
Title : AC3 2.0 @ 192 kbps - DVO
Language : Russian
Default : No
Forced : No

Audio #4
ID : 5
Format : AC-3
Format/Info : Audio Coding 3
Mode extension : CM (complete main)
Format settings, Endianness : Big
Codec ID : A_AC3
Duration : 1 h 51 min
Bit rate mode : Constant
Bit rate : 192 kb/s
Channel(s) : 2 channels
Channel positions : Front: L R
Sampling rate : 48.0 kHz
Frame rate : 31.250 FPS (1536 spf)
Bit depth : 16 bits
Compression mode : Lossy
Stream size : 153 MiB (1%)
Title : AC3 2.0 @ 192 kbps - AVO, Алексей Матвеев (Doctor Joker)
Language : Russian
Default : No
Forced : No

Audio #5
ID : 6
Format : AC-3
Format/Info : Audio Coding 3
Mode extension : CM (complete main)
Format settings, Endianness : Big
Codec ID : A_AC3
Duration : 1 h 51 min
Bit rate mode : Constant
Bit rate : 192 kb/s
Channel(s) : 2 channels
Channel positions : Front: L R
Sampling rate : 48.0 kHz
Frame rate : 31.250 FPS (1536 spf)
Bit depth : 16 bits
Compression mode : Lossy
Stream size : 153 MiB (1%)
Title : AC3 2.0 @ 192 kbps - DVO, IНТЕР
Language : Ukrainian
Default : No
Forced : No

Audio #6
ID : 7
Format : DTS
Format/Info : Digital Theater Systems
Format profile : MA / Core
Mode : 16
Format settings, Endianness : Big
Codec ID : A_DTS
Duration : 1 h 51 min
Bit rate mode : Variable / Constant
Bit rate : 1 050 kb/s / 768 kb/s
Channel(s) : 1 channel
Channel positions : Front: C
Sampling rate : 48.0 kHz
Frame rate : 93.750 FPS (512 spf)
Bit depth : 24 bits
Compression mode : Lossless / Lossy
Stream size : 839 MiB (4%)
Title : DTS-HD MA 1.0 @ 1050 kbps - Original
Language : English
Default : No
Forced : No

Audio #7
ID : 8
Format : AC-3
Format/Info : Audio Coding 3
Mode extension : CM (complete main)
Format settings, Endianness : Big
Codec ID : A_AC3
Duration : 1 h 51 min
Bit rate mode : Constant
Bit rate : 192 kb/s
Channel(s) : 1 channel
Channel positions : Front: C
Sampling rate : 48.0 kHz
Frame rate : 31.250 FPS (1536 spf)
Bit depth : 16 bits
Compression mode : Lossy
Stream size : 153 MiB (1%)
Title : AC3 1.0 @ 192 kbps - commentary by Author Peter Brunette
Language : English
Default : No
Forced : No

Text #1
ID : 9
Format : UTF-8
Codec ID : S_TEXT/UTF8
Codec ID/Info : UTF-8 Plain Text
Duration : 1 h 41 min
Bit rate : 24 b/s
Count of elements : 415
Stream size : 18.2 KiB (0%)
Title : Full
Language : Russian
Default : No
Forced : No

Text #2
ID : 10
Format : UTF-8
Codec ID : S_TEXT/UTF8
Codec ID/Info : UTF-8 Plain Text
Duration : 1 h 41 min
Bit rate : 22 b/s
Count of elements : 312
Stream size : 16.4 KiB (0%)
Title : Full
Language : Russian
Default : No
Forced : No

Text #3
ID : 11
Format : UTF-8
Codec ID : S_TEXT/UTF8
Codec ID/Info : UTF-8 Plain Text
Duration : 1 h 38 min
Bit rate : 27 b/s
Count of elements : 412
Stream size : 19.5 KiB (0%)
Title : Full (Doctor Joker)
Language : Russian
Default : No
Forced : No

Text #4
ID : 12
Format : UTF-8
Codec ID : S_TEXT/UTF8
Codec ID/Info : UTF-8 Plain Text
Duration : 1 h 41 min
Bit rate : 21 b/s
Count of elements : 408
Stream size : 15.7 KiB (0%)
Title : Full
Language : Ukrainian
Default : No
Forced : No

Text #5
ID : 13
Format : UTF-8
Codec ID : S_TEXT/UTF8
Codec ID/Info : UTF-8 Plain Text
Duration : 1 h 38 min
Bit rate : 18 b/s
Count of elements : 483
Stream size : 13.5 KiB (0%)
Title : Full
Language : English
Default : No
Forced : No

Text #6
ID : 14
Format : UTF-8
Codec ID : S_TEXT/UTF8
Codec ID/Info : UTF-8 Plain Text
Duration : 1 h 50 min
Bit rate : 21 b/s
Count of elements : 632
Stream size : 17.2 KiB (0%)
Title : SDH
Language : English
Default : No
Forced : No

Menu
00:00:00.000 : en:00:00:00.000
00:05:34.084 : en:00:05:34.084
00:11:13.673 : en:00:11:13.673
00:16:30.990 : en:00:16:30.990
00:19:47.353 : en:00:19:47.353
00:22:49.577 : en:00:22:49.577
00:24:20.918 : en:00:24:20.918
00:30:14.855 : en:00:30:14.855
00:32:33.034 : en:00:32:33.034
00:37:10.478 : en:00:37:10.478
00:43:24.936 : en:00:43:24.936
00:51:30.462 : en:00:51:30.462
00:53:33.335 : en:00:53:33.335
00:58:35.971 : en:00:58:35.971
01:00:42.222 : en:01:00:42.222
01:07:08.816 : en:01:07:08.816
01:09:55.525 : en:01:09:55.525
01:15:50.588 : en:01:15:50.588
01:20:47.551 : en:01:20:47.551
01:23:49.316 : en:01:23:49.316
01:26:15.295 : en:01:26:15.295
01:32:40.346 : en:01:32:40.346
01:38:02.210 : en:01:38:02.210
01:42:28.267 : en:01:42:28.267
01:46:31.051 : en:01:46:31.051

Награды и номинации:

Британская академия, 1968 год
Номинации (3):


Лучшая работа оператора (цветные фильмы)
Лучшая работа художника (цветные фильмы)
Лучший британский фильм

Оскар, 1967 год
Номинации (2):


Лучший режиссер (Микеланджело Антониони)
Лучший оригинальный сценарий

Золотой глобус, 1967 год
Номинации (1):


Лучший иностранный фильм на английском языке

Каннский кинофестиваль, 1967 год
Победитель (1):


Золотая пальмовая ветвь
Скриншоты:



Смотреть Online

http://moonwalk.cc/video/ffe68e9076607c74/iframe
Детали торрента:
Название:Фотоувеличение / Blowup / Blow-Up (1966) BDRemux [H.264/1080p]
Дата добавления:30 Мар 2017 20:59:34
Размер:21,9 GB
Раздают:
Качают:0
Форум:Авторское кино

All rights reserved © 2015-2018