TORRENTS43.XYZ

Скачать Thorbjorn Risager & The Black Tornado - Discography 8CD (2007 -2017) [FLAC|Lossless|image + .cue] <Blues-Rock>


Thorbjorn Risager & The Black Tornado - Discography 8CD (2007 -2017)
Жанр: Blues-Rock
Источник: izia1956
Продолжительность: 06:23:52

Кодек: FLAC
Тип рипа: image + .cue

YouTube YouTube YouTube

[color=#transparent]Треклист:
Список альбомов:
2007 - From The Heart
2007 - Here I Am
2009 - Live At Victoria
2010 - Track Record
2012 - Dust & Scratches
2014 - Too Many Roads
2015 - Songs From The Road
2017 - Change My Game
[/color]

Об исполнителе:

Описание:
Международная известность и успех пришли к этому исполнителю из Дании недавно, с выходом в 2014 году альбома «Too Many Roads». С этой программой он вырвался за пределы Скандинавии, выступил с концертами в Штатах и даже в Индии. Необычен по нынешним стандартам голос Рисагера - мужественный, грубоватый, богатый тембрами и со сдержанной подачей. The Black Tornado - семь музыкантов, включая Рисагера. Пара саксафонов, труба и клавишные шедро раскрашивают и дополняют звук базового трио, доводя звучание до масштабов мини-оркестра. Играют они вместе уже почти 10 лет с минимальными изменениями в составе. Играют музыку разную, но собственного сочинения - классический ритм-энд-блюз, баллады, соул, фанк и шаффлы. Играют по-скандинавски, экономно относясь к аранжировкам, не греша избыточными красотами и помпой, точно и выверено, пожиная, к слову, долю скептицизма критиков.

2007 - From The Heart:

Продолжитeльность: 00:35:51
Издание: Cope Records - COPECD102

Трeклист:

01. Love Turned Cold (3:11)
02. You Can Have It Your Way (2:26)
03. Burning Up (3:12)
04. Ain't Gonna Turn My Back On You (4:40)
05. Roll'em Pete (3:30)
06. Heart Of The Night (3:56)
07. Can't Get Enough (3:43)
08. Same Old Blues (4:05)
09. I Don't Mind (3:19)
10. Ain't Ever Gonna Leave No More (3:49)

Отчёт EAC:

Exact Audio Copy V1.0 beta 3 from 29. August 2011

Отчёт EAC об извлечении, выполненном 20. февраля 2017, 11:03

Thorbjorn Risager / From The Heart

Дисковод: PLEXTOR DVDR PX-880SA Adapter: 1 ID: 0

Режим чтения : Достоверность
Использование точного потока : Да
Отключение кэша аудио : Да
Использование указателей C2 : Нет

Коррекция смещения при чтении : 6
Способность читать области Lead-in и Lead-out : Нет
Заполнение пропущенных сэмплов тишиной : Да
Удаление блоков с тишиной в начале и конце : Нет
При вычислениях CRC использовались нулевые сэмплы : Да
Интерфейс : Установленный внешний ASPI-интерфейс

Выходной формат : Пользовательский кодировщик
Выбранный битрейт : 1024 kBit/s
Качество : Высокий
Добавление ID3-тега : Нет
Утилита сжатия : C:\Program Files\Exact Audio Copy\FLAC\FLAC.EXE
Дополнительные параметры : -8 -V -T "ARTIST=%artist%" -T "ALBUM=%albumtitle%" -T "DATE=%year%" -T "GENRE=%genre%" -T "COMMENT=ripped by izia1956" %source%

TOC извлечённого CD

Трек | Старт | Длительность | Начальный сектор | Конечный сектор
---------------------------------------------------------------------
1 | 0:00.00 | 3:11.00 | 0 | 14324
2 | 3:11.00 | 2:25.42 | 14325 | 25241
3 | 5:36.42 | 3:12.29 | 25242 | 39670
4 | 8:48.71 | 4:39.65 | 39671 | 60660
5 | 13:28.61 | 3:29.38 | 60661 | 76373
6 | 16:58.24 | 3:56.34 | 76374 | 94107
7 | 20:54.58 | 3:43.27 | 94108 | 110859
8 | 24:38.10 | 4:05.06 | 110860 | 129240
9 | 28:43.16 | 3:19.30 | 129241 | 144195
10 | 32:02.46 | 3:48.64 | 144196 | 161359

Характеристики диапазона извлечения и сообщения об ошибках

Выбранный диапазон

Имя файла D:\BitComet\Thorbjorn Risager\2007 - Ain't Ever Gonna Leave No More\Thorbjorn Risager - From The Heart.wav

Пиковый уровень 98.8 %
Скорость извлечения 2.9 X
Качество диапазона 100.0 %
CRC теста FCBB167F
CRC копии FCBB167F
Копирование... OK

Ошибок не произошло

AccurateRip: сводка

Трек 1 точность не определена (достоверность 4) [C6F76E7C], AccurateRip вернул [2FAF256A] (AR v2)
Трек 2 точность не определена (достоверность 4) [CBE845BF], AccurateRip вернул [41607196] (AR v2)
Трек 3 точность не определена (достоверность 4) [49AAAABE], AccurateRip вернул [E863E03D] (AR v2)
Трек 4 точность не определена (достоверность 4) [13576BD4], AccurateRip вернул [8AFABE24] (AR v2)
Трек 5 точность не определена (достоверность 4) [12C7A867], AccurateRip вернул [FB6302D6] (AR v2)
Трек 6 точность не определена (достоверность 4) [3E3B4EF9], AccurateRip вернул [E304D66F] (AR v2)
Трек 7 точность не определена (достоверность 4) [476442FE], AccurateRip вернул [8B5CC1D9] (AR v2)
Трек 8 точность не определена (достоверность 4) [5AA9FB6F], AccurateRip вернул [9CB8FF77] (AR v2)
Трек 9 точность не определена (достоверность 4) [6F1DDBE7], AccurateRip вернул [88C6B09A] (AR v2)
Трек 10 точность не определена (достоверность 3) [2AB68E55], AccurateRip вернул [639E9C20] (AR v2)

Ни один трек не прошёл проверки на точность
В вашей базе может быть иной вариант штамповки диска

Конец отчёта

==== Контрольная сумма отчёта 744A654327E85931E800D8A5A0BF5F633150D665E6BB074F8A5CD67D463E1B01 ====

Cue Sheet (.cue):

REM GENRE Blues-Rock
REM DATE 2007
REM DISCID 6B08670A
REM COMMENT "ExactAudioCopy v1.0b3"
PERFORMER "Thorbjorn Risager"
TITLE "From The Heart"
FILE "Thorbjorn Risager - From The Heart.flac" WAVE
TRACK 01 AUDIO
TITLE "Love Turned Cold"
PERFORMER "Thorbjorn Risager"
INDEX 01 00:00:00
TRACK 02 AUDIO
TITLE "You Can Have It Your Way"
PERFORMER "Thorbjorn Risager"
INDEX 00 03:08:74
INDEX 01 03:11:00
TRACK 03 AUDIO
TITLE "Burning Up"
PERFORMER "Thorbjorn Risager"
INDEX 00 05:34:41
INDEX 01 05:36:42
TRACK 04 AUDIO
TITLE "Ain't Gonna Turn My Back On You"
PERFORMER "Thorbjorn Risager"
INDEX 00 08:46:71
INDEX 01 08:48:71
TRACK 05 AUDIO
TITLE "Roll'em Pete"
PERFORMER "Thorbjorn Risager"
INDEX 00 13:26:60
INDEX 01 13:28:61
TRACK 06 AUDIO
TITLE "Heart Of The Night"
PERFORMER "Thorbjorn Risager"
INDEX 00 16:56:23
INDEX 01 16:58:24
TRACK 07 AUDIO
TITLE "Can't Get Enough"
PERFORMER "Thorbjorn Risager"
INDEX 00 20:52:58
INDEX 01 20:54:58
TRACK 08 AUDIO
TITLE "Same Old Blues"
PERFORMER "Thorbjorn Risager"
INDEX 00 24:37:61
INDEX 01 24:38:10
TRACK 09 AUDIO
TITLE "I Don't Mind"
PERFORMER "Thorbjorn Risager"
INDEX 00 28:40:37
INDEX 01 28:43:16
TRACK 10 AUDIO
TITLE "Ain't Ever Gonna Leave No More"
PERFORMER "Thorbjorn Risager"
INDEX 00 31:59:31
INDEX 01 32:02:46

Отчёт auCDtect Task manager:

-----------------------

DON'T MODIFY THIS FILE

-----------------------

PERFORMER: auCDtect Task Manager, ver. 1.6.0 RC1 build 1.6.0.1
Copyright (c) 2008-2010 y-soft. All rights reserved
http://y-soft.org

ANALYZER: auCDtect: CD records authenticity detector, version 0.8.2
Copyright (c) 2004 Oleg Berngardt. All rights reserved.
Copyright (c) 2004 Alexander Djourik. All rights reserved.

FILE: Thorbjorn Risager - From The Heart.flac
Size: 250504182 Hash: 1CA7DC9398665A15FB083DC647A47F0F Accuracy: -m0
Conclusion: CDDA 100%
Signature: 30321575BAC139910B30DB259A040E823BF22352

DRM log:

foobar2000 1.3.14 / Dynamic Range Meter 1.1.1
log date: 2017-03-17 07:39:05

--------------------------------------------------------------------------------
Analyzed: Thorbjorn Risager / From The Heart
--------------------------------------------------------------------------------

DR Peak RMS Duration Track
--------------------------------------------------------------------------------
DR9 -0.10 dB -10.04 dB 3:11 01-Love Turned Cold
DR8 -0.10 dB -8.93 dB 2:26 02-You Can Have It Your Way
DR8 -0.10 dB -9.61 dB 3:12 03-Burning Up
DR8 -0.10 dB -9.54 dB 4:40 04-Ain't Gonna Turn My Back On You
DR8 -0.10 dB -10.21 dB 3:30 05-Roll'em Pete
DR8 -0.10 dB -9.82 dB 3:56 06-Heart Of The Night
DR8 -0.10 dB -9.92 dB 3:43 07-Can't Get Enough
DR9 -0.10 dB -11.00 dB 4:05 08-Same Old Blues
DR9 -0.10 dB -10.59 dB 3:19 09-I Don't Mind
DR8 -0.10 dB -9.07 dB 3:49 10-Ain't Ever Gonna Leave No More
--------------------------------------------------------------------------------

Number of tracks: 10
Official DR value: DR8

Samplerate: 44100 Hz
Channels: 2
Bits per sample: 16
Bitrate: 931 kbps
Codec: FLAC
================================================================================

2007 - Here I Am:

Продолжитeльность: 00:39:15
Издание: Cope Records - COPECD138-1

Трeклист:

01. Here I Am (3:21)
02. All I Want (3:49)
03. Heart Of The Night (5:17)
04. From Now On (3:55)
05. You Better Pay Attention (2:53)
06. Take It Off (3:34)
07. Down Home Blues (5:04)]
08. Johnny Called The Whole Thing Off (4:14)
09. Good Thing (4:12)
10. I Won't Let You Down (2:51)

Отчёт EAC:

Exact Audio Copy V1.0 beta 3 from 29. August 2011

Отчёт EAC об извлечении, выполненном 24. февраля 2017, 4:37

Thorbjorn Risager / Here I Am

Дисковод: PLEXTOR DVDR PX-880SA Adapter: 1 ID: 0

Режим чтения : Достоверность
Использование точного потока : Да
Отключение кэша аудио : Да
Использование указателей C2 : Нет

Коррекция смещения при чтении : 6
Способность читать области Lead-in и Lead-out : Нет
Заполнение пропущенных сэмплов тишиной : Да
Удаление блоков с тишиной в начале и конце : Нет
При вычислениях CRC использовались нулевые сэмплы : Да
Интерфейс : Установленный внешний ASPI-интерфейс

Выходной формат : Пользовательский кодировщик
Выбранный битрейт : 1024 kBit/s
Качество : Высокий
Добавление ID3-тега : Нет
Утилита сжатия : C:\Program Files\Exact Audio Copy\FLAC\FLAC.EXE
Дополнительные параметры : -8 -V -T "ARTIST=%artist%" -T "ALBUM=%albumtitle%" -T "DATE=%year%" -T "GENRE=%genre%" -T "COMMENT=ripped by izia1956" %source%

TOC извлечённого CD

Трек | Старт | Длительность | Начальный сектор | Конечный сектор
---------------------------------------------------------------------
1 | 0:00.00 | 3:21.56 | 0 | 15130
2 | 3:21.56 | 3:49.07 | 15131 | 32312
3 | 7:10.63 | 5:17.50 | 32313 | 56137
4 | 12:28.38 | 3:55.49 | 56138 | 73811
5 | 16:24.12 | 2:53.47 | 73812 | 86833
6 | 19:17.59 | 3:34.70 | 86834 | 102953
7 | 22:52.54 | 5:04.20 | 102954 | 125773
8 | 27:56.74 | 4:14.09 | 125774 | 144832
9 | 32:11.08 | 4:12.42 | 144833 | 163774
10 | 36:23.50 | 2:51.27 | 163775 | 176626

Характеристики диапазона извлечения и сообщения об ошибках

Выбранный диапазон

Имя файла D:\BitComet\Thorbjorn Risager\2007 - Here I Am\Thorbjorn Risager - Here I Am.wav

Пиковый уровень 99.9 %
Скорость извлечения 2.9 X
Качество диапазона 100.0 %
CRC теста 2FCDDFA9
CRC копии 2FCDDFA9
Копирование... OK

Ошибок не произошло

AccurateRip: сводка

Трек 1 точность не определена (достоверность 5) [D3533F1F], AccurateRip вернул [B5FB4739] (AR v2)
Трек 2 точность не определена (достоверность 5) [D2ECEB38], AccurateRip вернул [8315DE61] (AR v2)
Трек 3 точность не определена (достоверность 5) [5B217A17], AccurateRip вернул [1459A6F5] (AR v2)
Трек 4 точность не определена (достоверность 5) [6872ECF9], AccurateRip вернул [4DDF5352] (AR v2)
Трек 5 точность не определена (достоверность 5) [01DD485D], AccurateRip вернул [CCDA1156] (AR v2)
Трек 6 точность не определена (достоверность 5) [7D1A8C19], AccurateRip вернул [597C1E8E] (AR v2)
Трек 7 точность не определена (достоверность 5) [67CD045B], AccurateRip вернул [55E56A8D] (AR v2)
Трек 8 точность не определена (достоверность 5) [6872377E], AccurateRip вернул [4D741538] (AR v2)
Трек 9 точность не определена (достоверность 5) [E847234F], AccurateRip вернул [B0DDCD9B] (AR v2)
Трек 10 точность не определена (достоверность 5) [3E0395F2], AccurateRip вернул [2FEFCD76] (AR v2)

Ни один трек не прошёл проверки на точность
В вашей базе может быть иной вариант штамповки диска

Конец отчёта

==== Контрольная сумма отчёта 5F93C8E9BE468EAEAD0A9B738E4BFF9F968D1A27BEC0D38BAA6AC49D32A397E5 ====

Cue Sheet (.cue):

REM GENRE Blues-Rock
REM DATE 2007
REM DISCID 8809330A
REM COMMENT "ExactAudioCopy v1.0b3"
PERFORMER "Thorbjorn Risager"
TITLE "Here I Am"
FILE "Thorbjorn Risager - Here I Am.flac" WAVE
TRACK 01 AUDIO
TITLE "Here I Am"
PERFORMER "Thorbjorn Risager"
INDEX 01 00:00:00
TRACK 02 AUDIO
TITLE "All I Want"
PERFORMER "Thorbjorn Risager"
INDEX 00 03:20:35
INDEX 01 03:21:56
TRACK 03 AUDIO
TITLE "Heart Of the Night"
PERFORMER "Thorbjorn Risager"
INDEX 00 07:09:44
INDEX 01 07:10:63
TRACK 04 AUDIO
TITLE "From Now On"
PERFORMER "Thorbjorn Risager"
INDEX 01 12:28:38
TRACK 05 AUDIO
TITLE "You Better Pay Attention"
PERFORMER "Thorbjorn Risager"
INDEX 01 16:24:12
TRACK 06 AUDIO
TITLE "Take It Off"
PERFORMER "Thorbjorn Risager"
INDEX 00 19:16:38
INDEX 01 19:17:59
TRACK 07 AUDIO
TITLE "Down Home Blues"
PERFORMER "Thorbjorn Risager"
INDEX 00 22:50:25
INDEX 01 22:52:54
TRACK 08 AUDIO
TITLE "Johnny Called The Whole Thing Off"
PERFORMER "Thorbjorn Risager"
INDEX 00 27:55:72
INDEX 01 27:56:74
TRACK 09 AUDIO
TITLE "Good Thing"
PERFORMER "Thorbjorn Risager"
INDEX 01 32:11:08
TRACK 10 AUDIO
TITLE "I Won't Let You Down"
PERFORMER "Thorbjorn Risager"
INDEX 00 36:21:72
INDEX 01 36:23:50

Отчёт auCDtect Task manager:

-----------------------

DON'T MODIFY THIS FILE

-----------------------

PERFORMER: auCDtect Task Manager, ver. 1.6.0 RC1 build 1.6.0.1
Copyright (c) 2008-2010 y-soft. All rights reserved
http://y-soft.org

ANALYZER: auCDtect: CD records authenticity detector, version 0.8.2
Copyright (c) 2004 Oleg Berngardt. All rights reserved.
Copyright (c) 2004 Alexander Djourik. All rights reserved.

FILE: Thorbjorn Risager - Here I Am.flac
Size: 262535000 Hash: AD2A0324754A8933C2653591560B4401 Accuracy: -m0
Conclusion: CDDA 100%
Signature: AC9BC0D9F7E81CF2886E8B21FE5848DF5292FC82

DRM log:

foobar2000 1.3.14 / Dynamic Range Meter 1.1.1
log date: 2017-03-17 07:39:37

--------------------------------------------------------------------------------
Analyzed: Thorbjorn Risager / Here I Am
--------------------------------------------------------------------------------

DR Peak RMS Duration Track
--------------------------------------------------------------------------------
DR11 -0.01 dB -12.19 dB 3:22 01-Here I Am
DR8 -0.01 dB -8.94 dB 3:49 02-All I Want
DR10 -0.01 dB -12.47 dB 5:18 03-Heart Of the Night
DR10 -0.01 dB -10.78 dB 3:56 04-From Now On
DR11 -0.01 dB -12.08 dB 2:54 05-You Better Pay Attention
DR11 -0.01 dB -11.63 dB 3:35 06-Take It Off
DR10 -0.01 dB -12.09 dB 5:04 07-Down Home Blues
DR12 -0.01 dB -12.99 dB 4:14 08-Johnny Called The Whole Thing Off
DR10 -0.01 dB -10.91 dB 4:13 09-Good Thing
DR12 -0.01 dB -15.89 dB 2:51 10-I Won't Let You Down
--------------------------------------------------------------------------------

Number of tracks: 10
Official DR value: DR10

Samplerate: 44100 Hz
Channels: 2
Bits per sample: 16
Bitrate: 892 kbps
Codec: FLAC
================================================================================

2009 - Live At Victoria:

Продолжитeльность: 00:44:11
Издание: Vme ‎– COPECD159

Трeклист:

01. You Walked Right In (3:24)
02. I'm Tired (3:38)]
03. You Better Pay Attention (3:22)
04. Burning Up (4:11)
05. The Straight And Narrow Line (5:53)
06. Mr. Bad Luck (4:23)
07. Down Home Blues (4:46)
08. In The Back Of My Mind (3:41)
09. 7 Steps To Heaven (3:29)
10. Love Turned Cold (3:57)
11. You Can Have It Your Way (3:23)

Отчёт EAC:

Exact Audio Copy V1.0 beta 3 from 29. August 2011

Отчёт EAC об извлечении, выполненном 15. марта 2017, 11:53

Thorbjorn Risager / Live At Victoria

Дисковод: PLEXTOR DVDR PX-880SA Adapter: 1 ID: 0

Режим чтения : Достоверность
Использование точного потока : Да
Отключение кэша аудио : Да
Использование указателей C2 : Нет

Коррекция смещения при чтении : 6
Способность читать области Lead-in и Lead-out : Нет
Заполнение пропущенных сэмплов тишиной : Да
Удаление блоков с тишиной в начале и конце : Нет
При вычислениях CRC использовались нулевые сэмплы : Да
Интерфейс : Установленный внешний ASPI-интерфейс

Выходной формат : Пользовательский кодировщик
Выбранный битрейт : 1024 kBit/s
Качество : Высокий
Добавление ID3-тега : Нет
Утилита сжатия : C:\Program Files\Exact Audio Copy\FLAC\FLAC.EXE
Дополнительные параметры : -8 -V -T "ARTIST=%artist%" -T "ALBUM=%albumtitle%" -T "DATE=%year%" -T "GENRE=%genre%" -T "COMMENT=ripped by izia1956" %source%

TOC извлечённого CD

Трек | Старт | Длительность | Начальный сектор | Конечный сектор
---------------------------------------------------------------------
1 | 0:00.00 | 3:24.12 | 0 | 15311
2 | 3:24.12 | 3:38.17 | 15312 | 31678
3 | 7:02.29 | 3:22.26 | 31679 | 46854
4 | 10:24.55 | 4:11.25 | 46855 | 65704
5 | 14:36.05 | 5:53.48 | 65705 | 92227
6 | 20:29.53 | 4:23.68 | 92228 | 112020
7 | 24:53.46 | 4:46.21 | 112021 | 133491
8 | 29:39.67 | 3:41.38 | 133492 | 150104
9 | 33:21.30 | 3:29.63 | 150105 | 165842
10 | 36:51.18 | 3:57.06 | 165843 | 183623
11 | 40:48.24 | 3:23.13 | 183624 | 198861

Характеристики диапазона извлечения и сообщения об ошибках

Выбранный диапазон

Имя файла D:\BitComet\Thorbjorn Risager\2009 - Live At Victoria\Thorbjorn Risager - Live At Victoria.wav

Пиковый уровень 100.0 %
Скорость извлечения 2.9 X
Качество диапазона 100.0 %
CRC теста F9A35302
CRC копии F9A35302
Копирование... OK

Ошибок не произошло

AccurateRip: сводка

Трек 1 : извлечено точно (доверие 6) [A18AD205] (AR v2)
Трек 2 : извлечено точно (доверие 6) [78241D6B] (AR v2)
Трек 3 : извлечено точно (доверие 6) [612A8666] (AR v2)
Трек 4 : извлечено точно (доверие 6) [27A8B7E1] (AR v2)
Трек 5 : извлечено точно (доверие 6) [DDF21D0D] (AR v2)
Трек 6 : извлечено точно (доверие 6) [5FF9068D] (AR v2)
Трек 7 : извлечено точно (доверие 6) [F6CC9337] (AR v2)
Трек 8 : извлечено точно (доверие 6) [3177F1C4] (AR v2)
Трек 9 : извлечено точно (доверие 6) [6322978A] (AR v2)
Трек 10 : извлечено точно (доверие 5) [824A70F4] (AR v2)
Трек 11 : извлечено точно (доверие 6) [23D73FEC] (AR v2)

Все треки извлечены точно

Конец отчёта

==== Контрольная сумма отчёта 1185BD5E32B5B11B3624158942A5C0FF89D1E280849E4302E245E872F71DC2B2 ====

Cue Sheet (.cue):

REM GENRE Blues-Rock
REM DATE 2009
REM DISCID 7C0A5B0B
REM COMMENT "ExactAudioCopy v1.0b3"
PERFORMER "Thorbjorn Risager"
TITLE " Live At Victoria"
FILE "Thorbjorn Risager - Live At Victoria.flac" WAVE
TRACK 01 AUDIO
TITLE "You Walked Right In"
PERFORMER "Thorbjorn Risager"
INDEX 01 00:00:00
TRACK 02 AUDIO
TITLE "I'm Tired"
PERFORMER "Thorbjorn Risager"
INDEX 00 03:21:67
INDEX 01 03:24:12
TRACK 03 AUDIO
TITLE "You Better Pay Attention"
PERFORMER "Thorbjorn Risager"
INDEX 00 07:00:52
INDEX 01 07:02:29
TRACK 04 AUDIO
TITLE "Burning Up"
PERFORMER "Thorbjorn Risager"
INDEX 00 10:22:37
INDEX 01 10:24:55
TRACK 05 AUDIO
TITLE "The Straight And Narrow Line"
PERFORMER "Thorbjorn Risager"
INDEX 01 14:36:05
TRACK 06 AUDIO
TITLE "Mr Bad Luck"
PERFORMER "Thorbjorn Risager"
INDEX 00 20:26:41
INDEX 01 20:29:53
TRACK 07 AUDIO
TITLE "Down Home Blues"
PERFORMER "Thorbjorn Risager"
INDEX 00 24:50:59
INDEX 01 24:53:46
TRACK 08 AUDIO
TITLE "In The Back Of My Mind"
PERFORMER "Thorbjorn Risager"
INDEX 00 29:37:16
INDEX 01 29:39:67
TRACK 09 AUDIO
TITLE "7 Steps To Heaven"
PERFORMER "Thorbjorn Risager"
INDEX 00 33:18:15
INDEX 01 33:21:30
TRACK 10 AUDIO
TITLE "Love Turned Cold"
PERFORMER "Thorbjorn Risager"
INDEX 00 36:48:45
INDEX 01 36:51:18
TRACK 11 AUDIO
TITLE "You Can Have It Your Way"
PERFORMER "Thorbjorn Risager"
INDEX 00 40:44:53
INDEX 01 40:48:24

Отчёт auCDtect Task manager:

-----------------------

DON'T MODIFY THIS FILE

-----------------------

PERFORMER: auCDtect Task Manager, ver. 1.6.0 RC1 build 1.6.0.1
Copyright (c) 2008-2010 y-soft. All rights reserved
http://y-soft.org

ANALYZER: auCDtect: CD records authenticity detector, version 0.8.2
Copyright (c) 2004 Oleg Berngardt. All rights reserved.
Copyright (c) 2004 Alexander Djourik. All rights reserved.

FILE: Thorbjorn Risager - Live At Victoria.flac
Size: 314844221 Hash: 8DB123AE6947FD19A305D8ED7011898D Accuracy: -m0
Conclusion: CDDA 100%
Signature: CB9B3CBC8D185FE707EE2C2F44C023460EBF9296

DRM log:

foobar2000 1.3.14 / Dynamic Range Meter 1.1.1
log date: 2017-03-17 07:40:04

--------------------------------------------------------------------------------
Analyzed: Thorbjorn Risager / Live At Victoria
--------------------------------------------------------------------------------

DR Peak RMS Duration Track
--------------------------------------------------------------------------------
DR4 0.00 dB -4.85 dB 3:24 01-You Walked Right In
DR5 0.00 dB -5.40 dB 3:38 02-I'm Tired
DR5 0.00 dB -6.56 dB 3:22 03-You Better Pay Attention
DR4 0.00 dB -5.37 dB 4:11 04-Burning Up
DR5 0.00 dB -5.78 dB 5:54 05-The Straight And Narrow Line
DR4 0.00 dB -5.91 dB 4:24 06-Mr Bad Luck
DR5 0.00 dB -5.77 dB 4:46 07-Down Home Blues
DR4 0.00 dB -4.45 dB 3:42 08-In The Back Of My Mind
DR4 0.00 dB -4.83 dB 3:30 09-7 Steps To Heaven
DR4 -0.01 dB -5.25 dB 3:57 10-Love Turned Cold
DR5 0.00 dB -6.04 dB 3:23 11-You Can Have It Your Way
--------------------------------------------------------------------------------

Number of tracks: 11
Official DR value: DR4

Samplerate: 44100 Hz
Channels: 2
Bits per sample: 16
Bitrate: 950 kbps
Codec: FLAC
================================================================================

2010 - Track Record:

Продолжитeльность: 00:40:49
Издание: Cope Records - COPECD163

Трeклист:

01. Rock N Roll Ride (4:18)
02. Baby Please Dont Go (2:37)
03. Lets Go Down (4:37)
04. You Walked Right In (3:05)
05. 7 Steps To Heaven (3:21)
06. Stand Beside Me (5:09)
07. Eyes That Turned Away (3:48)
08. Rhythms Of The Night (3:45)
09. Ill Be Moving On (3:31)
10. Bells Of Joy (6:33)

Отчёт EAC:

Exact Audio Copy V1.0 beta 3 from 29. August 2011

Отчёт EAC об извлечении, выполненном 26. февраля 2017, 13:09

Thorbjorn Risager / Track Record

Дисковод: PLEXTOR DVDR PX-880SA Adapter: 1 ID: 0

Режим чтения : Достоверность
Использование точного потока : Да
Отключение кэша аудио : Да
Использование указателей C2 : Нет

Коррекция смещения при чтении : 6
Способность читать области Lead-in и Lead-out : Нет
Заполнение пропущенных сэмплов тишиной : Да
Удаление блоков с тишиной в начале и конце : Нет
При вычислениях CRC использовались нулевые сэмплы : Да
Интерфейс : Установленный внешний ASPI-интерфейс

Выходной формат : Пользовательский кодировщик
Выбранный битрейт : 1024 kBit/s
Качество : Высокий
Добавление ID3-тега : Нет
Утилита сжатия : C:\Program Files\Exact Audio Copy\FLAC\FLAC.EXE
Дополнительные параметры : -8 -V -T "ARTIST=%artist%" -T "ALBUM=%albumtitle%" -T "DATE=%year%" -T "GENRE=%genre%" -T "COMMENT=ripped by izia1956" %source%

TOC извлечённого CD

Трек | Старт | Длительность | Начальный сектор | Конечный сектор
---------------------------------------------------------------------
1 | 0:00.00 | 4:18.66 | 0 | 19415
2 | 4:18.66 | 2:38.17 | 19416 | 31282
3 | 6:57.08 | 4:37.08 | 31283 | 52065
4 | 11:34.16 | 3:06.73 | 52066 | 66088
5 | 14:41.14 | 3:20.32 | 66089 | 81120
6 | 18:01.46 | 5:09.64 | 81121 | 104359
7 | 23:11.35 | 3:48.54 | 104360 | 121513
8 | 27:00.14 | 3:46.64 | 121514 | 138527
9 | 30:47.03 | 3:31.51 | 138528 | 154403
10 | 34:18.54 | 6:30.67 | 154404 | 183720

Характеристики диапазона извлечения и сообщения об ошибках

Выбранный диапазон

Имя файла D:\BitComet\Thorbjorn Risager\2010 - Track Record\Thorbjorn Risager - Track Record.wav

Пиковый уровень 98.9 %
Скорость извлечения 2.9 X
Качество диапазона 100.0 %
CRC теста 4B396961
CRC копии 4B396961
Копирование... OK

Ошибок не произошло

AccurateRip: сводка

Трек 1 : извлечено точно (доверие 10) [45EFB79F] (AR v2)
Трек 2 : извлечено точно (доверие 11) [9866B058] (AR v2)
Трек 3 : извлечено точно (доверие 11) [49B836E3] (AR v2)
Трек 4 : извлечено точно (доверие 11) [0F9F3C06] (AR v2)
Трек 5 : извлечено точно (доверие 11) [5C50E7D1] (AR v2)
Трек 6 : извлечено точно (доверие 10) [D85BD180] (AR v2)
Трек 7 : извлечено точно (доверие 11) [F993F905] (AR v2)
Трек 8 : извлечено точно (доверие 11) [8A0AB861] (AR v2)
Трек 9 : извлечено точно (доверие 11) [5B5A4915] (AR v2)
Трек 10 : извлечено точно (доверие 10) [0F2DC6AE] (AR v2)

Все треки извлечены точно

Конец отчёта

==== Контрольная сумма отчёта 3783F6AA45FC2D8F8AE2B0AF65BA6E7A003471C5FFDD82FFC6C170D6CCA9A9DA ====

Cue Sheet (.cue):

REM GENRE Blues-Rock
REM DATE 2010
REM DISCID 8509910A
REM COMMENT "ExactAudioCopy v1.0b3"
PERFORMER "Thorbjorn Risager"
TITLE "Track Record"
FILE "Thorbjorn Risager - Track Record.flac" WAVE
TRACK 01 AUDIO
TITLE "Rock N Roll Ride"
PERFORMER "Thorbjorn Risager"
INDEX 01 00:00:00
TRACK 02 AUDIO
TITLE "Baby Please Dont Go"
PERFORMER "Thorbjorn Risager"
INDEX 00 04:18:09
INDEX 01 04:18:66
TRACK 03 AUDIO
TITLE "Lets Go Down"
PERFORMER "Thorbjorn Risager"
INDEX 00 06:55:34
INDEX 01 06:57:08
TRACK 04 AUDIO
TITLE "You Walked Right In"
PERFORMER "Thorbjorn Risager"
INDEX 00 11:32:64
INDEX 01 11:34:16
TRACK 05 AUDIO
TITLE "7 Steps To Heaven"
PERFORMER "Thorbjorn Risager"
INDEX 00 14:38:11
INDEX 01 14:41:14
TRACK 06 AUDIO
TITLE "Stand Beside Me"
PERFORMER "Thorbjorn Risager"
INDEX 00 17:59:63
INDEX 01 18:01:46
TRACK 07 AUDIO
TITLE "Eyes That Turned Away"
PERFORMER "Thorbjorn Risager"
INDEX 00 23:09:56
INDEX 01 23:11:35
TRACK 08 AUDIO
TITLE "Rhythms Of The Night"
PERFORMER "Thorbjorn Risager"
INDEX 00 26:58:18
INDEX 01 27:00:14
TRACK 09 AUDIO
TITLE "Ill Be Moving On"
PERFORMER "Thorbjorn Risager"
INDEX 00 30:44:11
INDEX 01 30:47:03
TRACK 10 AUDIO
TITLE "Bells Of Joy"
PERFORMER "Thorbjorn Risager"
INDEX 00 34:15:53
INDEX 01 34:18:54

Отчёт auCDtect Task manager:

-----------------------

DON'T MODIFY THIS FILE

-----------------------

PERFORMER: auCDtect Task Manager, ver. 1.6.0 RC1 build 1.6.0.1
Copyright (c) 2008-2010 y-soft. All rights reserved
http://y-soft.org

ANALYZER: auCDtect: CD records authenticity detector, version 0.8.2
Copyright (c) 2004 Oleg Berngardt. All rights reserved.
Copyright (c) 2004 Alexander Djourik. All rights reserved.

FILE: Thorbjorn Risager - Track Record.flac
Size: 278523448 Hash: 873BBC5C23E04DCB0F493DABAA74F6CB Accuracy: -m0
Conclusion: CDDA 100%
Signature: 1C0F29E42E1330D57F1E3E6F12F033F3C1F63ADB

DRM log:

foobar2000 1.3.14 / Dynamic Range Meter 1.1.1
log date: 2017-03-17 07:40:31

--------------------------------------------------------------------------------
Analyzed: Thorbjorn Risager / Track Record
--------------------------------------------------------------------------------

DR Peak RMS Duration Track
--------------------------------------------------------------------------------
DR6 -0.20 dB -8.16 dB 4:19 01-Rock N Roll Ride
DR7 -0.70 dB -8.37 dB 2:38 02-Baby Please Dont Go
DR8 -0.50 dB -9.90 dB 4:37 03-Lets Go Down
DR7 -0.60 dB -8.51 dB 3:07 04-You Walked Right In
DR7 -0.60 dB -8.73 dB 3:20 05-7 Steps To Heaven
DR7 -0.09 dB -10.56 dB 5:10 06-Stand Beside Me
DR9 -0.27 dB -10.24 dB 3:49 07-Eyes That Turned Away
DR7 -0.60 dB -9.01 dB 3:47 08-Rhythms Of The Night
DR7 -0.60 dB -8.79 dB 3:32 09-Ill Be Moving On
DR7 -0.29 dB -9.57 dB 6:31 10-Bells Of Joy
--------------------------------------------------------------------------------

Number of tracks: 10
Official DR value: DR7

Samplerate: 44100 Hz
Channels: 2
Bits per sample: 16
Bitrate: 909 kbps
Codec: FLAC
================================================================================

2012 - Dust & Scratches:

Продолжитeльность: 00:44:43
Издание: Cope Records ‎– COPECD 166

Трeклист:

01. Single Tear (4:14)
02. More (3:50)
03. Back Home (4:09)
04. In The Back Of My Mind (3:33)
05. Precious Time (3:59)
06. End Of Time (5:04)
07. Dealer's Dealing (4:48)
08. All Your Dollars (3:58)
09. On My Way (3:25)
10. Make It Real (4:16)
11. House Rocking Band (3:25)

Отчёт EAC:

Exact Audio Copy V1.0 beta 3 from 29. August 2011

Отчёт EAC об извлечении, выполненном 15. марта 2017, 10:30

Thorbjorn Risager / Dust & Scratches

Дисковод: PLEXTOR DVDR PX-880SA Adapter: 1 ID: 0

Режим чтения : Достоверность
Использование точного потока : Да
Отключение кэша аудио : Да
Использование указателей C2 : Нет

Коррекция смещения при чтении : 6
Способность читать области Lead-in и Lead-out : Нет
Заполнение пропущенных сэмплов тишиной : Да
Удаление блоков с тишиной в начале и конце : Нет
При вычислениях CRC использовались нулевые сэмплы : Да
Интерфейс : Установленный внешний ASPI-интерфейс

Выходной формат : Пользовательский кодировщик
Выбранный битрейт : 1024 kBit/s
Качество : Высокий
Добавление ID3-тега : Нет
Утилита сжатия : C:\Program Files\Exact Audio Copy\FLAC\FLAC.EXE
Дополнительные параметры : -8 -V -T "ARTIST=%artist%" -T "ALBUM=%albumtitle%" -T "DATE=%year%" -T "GENRE=%genre%" -T "COMMENT=ripped by izia1956" %source%

TOC извлечённого CD

Трек | Старт | Длительность | Начальный сектор | Конечный сектор
---------------------------------------------------------------------
1 | 0:00.00 | 4:14.03 | 0 | 19052
2 | 4:14.03 | 3:50.04 | 19053 | 36306
3 | 8:04.07 | 4:09.47 | 36307 | 55028
4 | 12:13.54 | 3:33.45 | 55029 | 71048
5 | 15:47.24 | 3:59.01 | 71049 | 88974
6 | 19:46.25 | 5:04.14 | 88975 | 111788
7 | 24:50.39 | 4:47.58 | 111789 | 133371
8 | 29:38.22 | 3:58.38 | 133372 | 151259
9 | 33:36.60 | 3:25.45 | 151260 | 166679
10 | 37:02.30 | 4:16.16 | 166680 | 185895
11 | 41:18.46 | 3:25.23 | 185896 | 201293

Характеристики диапазона извлечения и сообщения об ошибках

Выбранный диапазон

Имя файла D:\BitComet\Thorbjorn Risager\2012 - Dust & Scratches\Thorbjorn Risager - Dust & Scratches.wav

Пиковый уровень 98.8 %
Скорость извлечения 2.9 X
Качество диапазона 100.0 %
CRC теста 02EAE363
CRC копии 02EAE363
Копирование... OK

Ошибок не произошло

AccurateRip: сводка

Трек 1 точность не определена (достоверность 8) [63A784AB], AccurateRip вернул [392B307C] (AR v2)
Трек 2 точность не определена (достоверность 8) [6F07FCEA], AccurateRip вернул [D20F6D0E] (AR v2)
Трек 3 точность не определена (достоверность 8) [5442805B], AccurateRip вернул [48C05C9F] (AR v2)
Трек 4 точность не определена (достоверность 8) [75811834], AccurateRip вернул [72E3CFF1] (AR v2)
Трек 5 точность не определена (достоверность 8) [3B198649], AccurateRip вернул [8001C5E0] (AR v2)
Трек 6 точность не определена (достоверность 8) [A7A9909D], AccurateRip вернул [D1842588] (AR v2)
Трек 7 точность не определена (достоверность 8) [C440A6CD], AccurateRip вернул [EB4F9FFD] (AR v2)
Трек 8 точность не определена (достоверность 8) [89E509B0], AccurateRip вернул [C53AB76A] (AR v2)
Трек 9 точность не определена (достоверность 8) [D0622FBA], AccurateRip вернул [7590D7A7] (AR v2)
Трек 10 точность не определена (достоверность 8) [9C1BFBE0], AccurateRip вернул [85E78697] (AR v2)
Трек 11 точность не определена (достоверность 8) [8C7F7E57], AccurateRip вернул [C948E6C0] (AR v2)

Ни один трек не прошёл проверки на точность
В вашей базе может быть иной вариант штамповки диска

Конец отчёта

==== Контрольная сумма отчёта 54E7856BBE981FBBDFF7FC8F4CAA9B0D4465E42FE5A2C9C3B03FA01C17D1D8E2 ====

Cue Sheet (.cue):

REM GENRE Blues-Rock
REM DATE 2012
REM DISCID 9B0A7B0B
REM COMMENT "ExactAudioCopy v1.0b3"
PERFORMER "Thorbjorn Risager"
TITLE "Dust & Scratches"
FILE "Thorbjorn Risager - Dust & Scratches.flac" WAVE
TRACK 01 AUDIO
TITLE "Single Tear"
PERFORMER "Thorbjorn Risager"
INDEX 01 00:00:00
TRACK 02 AUDIO
TITLE "More"
PERFORMER "Thorbjorn Risager"
INDEX 00 04:13:64
INDEX 01 04:14:03
TRACK 03 AUDIO
TITLE "Back Home"
PERFORMER "Thorbjorn Risager"
INDEX 00 08:03:68
INDEX 01 08:04:07
TRACK 04 AUDIO
TITLE "In the Back of My Mind"
PERFORMER "Thorbjorn Risager"
INDEX 00 12:13:00
INDEX 01 12:13:54
TRACK 05 AUDIO
TITLE "Precious Time"
PERFORMER "Thorbjorn Risager"
INDEX 00 15:44:47
INDEX 01 15:47:24
TRACK 06 AUDIO
TITLE "End of Time"
PERFORMER "Thorbjorn Risager"
INDEX 00 19:44:26
INDEX 01 19:46:25
TRACK 07 AUDIO
TITLE "Dealers Dealing"
PERFORMER "Thorbjorn Risager"
INDEX 00 24:49:05
INDEX 01 24:50:39
TRACK 08 AUDIO
TITLE "All Your Dollars"
PERFORMER "Thorbjorn Risager"
INDEX 00 29:36:56
INDEX 01 29:38:22
TRACK 09 AUDIO
TITLE "On My Way"
PERFORMER "Thorbjorn Risager"
INDEX 00 33:34:56
INDEX 01 33:36:60
TRACK 10 AUDIO
TITLE "Make it Real"
PERFORMER "Thorbjorn Risager"
INDEX 00 37:00:45
INDEX 01 37:02:30
TRACK 11 AUDIO
TITLE "House Rocking Band"
PERFORMER "Thorbjorn Risager"
INDEX 00 41:13:62
INDEX 01 41:18:46

Отчёт auCDtect Task manager:

-----------------------

DON'T MODIFY THIS FILE

-----------------------

PERFORMER: auCDtect Task Manager, ver. 1.6.0 RC1 build 1.6.0.1
Copyright (c) 2008-2010 y-soft. All rights reserved
http://y-soft.org

ANALYZER: auCDtect: CD records authenticity detector, version 0.8.2
Copyright (c) 2004 Oleg Berngardt. All rights reserved.
Copyright (c) 2004 Alexander Djourik. All rights reserved.

FILE: Thorbjorn Risager - Dust & Scratches.flac
Size: 300466578 Hash: D583F80D1C93854F96637808A3491867 Accuracy: -m0
Conclusion: CDDA 100%
Signature: CFB7860FD0B09B839319AEA0DE2D911D82B5C05F

DRM log:

foobar2000 1.3.14 / Dynamic Range Meter 1.1.1
log date: 2017-03-17 07:40:58

--------------------------------------------------------------------------------
Analyzed: Thorbjorn Risager / Dust & Scratches
--------------------------------------------------------------------------------

DR Peak RMS Duration Track
--------------------------------------------------------------------------------
DR6 -0.10 dB -6.95 dB 4:14 01-Single Tear
DR6 -0.10 dB -6.87 dB 3:50 02-More
DR6 -0.10 dB -8.61 dB 4:10 03-Back Home
DR6 -0.10 dB -7.35 dB 3:34 04-In the Back of My Mind
DR6 -0.10 dB -7.81 dB 3:59 05-Precious Time
DR8 -0.10 dB -10.60 dB 5:04 06-End of Time
DR7 -0.10 dB -8.45 dB 4:48 07-Dealers Dealing
DR6 -0.10 dB -7.62 dB 3:59 08-All Your Dollars
DR8 -0.10 dB -9.26 dB 3:26 09-On My Way
DR9 -0.10 dB -10.60 dB 4:16 10-Make it Real
DR5 -0.10 dB -6.14 dB 3:25 11-House Rocking Band
--------------------------------------------------------------------------------

Number of tracks: 11
Official DR value: DR7

Samplerate: 44100 Hz
Channels: 2
Bits per sample: 16
Bitrate: 895 kbps
Codec: FLAC
================================================================================

2014 - Too Many Roads:

Продолжитeльность: 00:48:21
Издание: Ruf Records - RUF1200

Трeклист:

01. If You Wanna Leave (4:16)
02. Too Many Roads (3:25)
03. China Gate (4:03)
04. Paradise (4:29)
05. Drowning (4:23)
06. Backseat Driver (3:54)
07. Through The Tears (4:30)
08. High Rolling (4:10)
09. Long Forgotten Track (4:28)
10. Red Hot And Blue (3:52)
11. Rich Man (3:38)
12. Play On (3:07)

Отчёт EAC:

Exact Audio Copy V1.0 beta 3 from 29. August 2011

Отчёт EAC об извлечении, выполненном 15. марта 2017, 11:13

Thorbjorn Risager & The Black Tornado / Too Many Roads

Дисковод: PLEXTOR DVDR PX-880SA Adapter: 1 ID: 0

Режим чтения : Достоверность
Использование точного потока : Да
Отключение кэша аудио : Да
Использование указателей C2 : Нет

Коррекция смещения при чтении : 6
Способность читать области Lead-in и Lead-out : Нет
Заполнение пропущенных сэмплов тишиной : Да
Удаление блоков с тишиной в начале и конце : Нет
При вычислениях CRC использовались нулевые сэмплы : Да
Интерфейс : Установленный внешний ASPI-интерфейс

Выходной формат : Пользовательский кодировщик
Выбранный битрейт : 1024 kBit/s
Качество : Высокий
Добавление ID3-тега : Нет
Утилита сжатия : C:\Program Files\Exact Audio Copy\FLAC\FLAC.EXE
Дополнительные параметры : -8 -V -T "ARTIST=%artist%" -T "ALBUM=%albumtitle%" -T "DATE=%year%" -T "GENRE=%genre%" -T "COMMENT=ripped by izia1956" %source%

TOC извлечённого CD

Трек | Старт | Длительность | Начальный сектор | Конечный сектор
---------------------------------------------------------------------
1 | 0:00.00 | 4:16.05 | 0 | 19204
2 | 4:16.05 | 3:25.51 | 19205 | 34630
3 | 7:41.56 | 4:03.68 | 34631 | 52923
4 | 11:45.49 | 4:29.29 | 52924 | 73127
5 | 16:15.03 | 4:23.69 | 73128 | 92921
6 | 20:38.72 | 3:54.40 | 92922 | 110511
7 | 24:33.37 | 4:30.28 | 110512 | 130789
8 | 29:03.65 | 4:10.36 | 130790 | 149575
9 | 33:14.26 | 4:28.66 | 149576 | 169741
10 | 37:43.17 | 3:52.50 | 169742 | 187191
11 | 41:35.67 | 3:38.56 | 187192 | 203597
12 | 45:14.48 | 3:07.17 | 203598 | 217639

Характеристики диапазона извлечения и сообщения об ошибках

Выбранный диапазон

Имя файла D:\BitComet\Thorbjorn Risager\2014 - Too Many Roads\Thorbjorn Risager & The Black Tornado - Too Many Roads.wav

Пиковый уровень 99.1 %
Скорость извлечения 2.8 X
Качество диапазона 100.0 %
CRC теста DDA9FED6
CRC копии DDA9FED6
Копирование... OK

Ошибок не произошло

AccurateRip: сводка

Трек 1 : извлечено точно (доверие 5) [5F7326CC] (AR v2)
Трек 2 : извлечено точно (доверие 5) [18E67D4E] (AR v2)
Трек 3 : извлечено точно (доверие 5) [5E399C88] (AR v2)
Трек 4 : извлечено точно (доверие 5) [947234F4] (AR v2)
Трек 5 : извлечено точно (доверие 5) [F1A03832] (AR v2)
Трек 6 : извлечено точно (доверие 5) [C16383F0] (AR v2)
Трек 7 : извлечено точно (доверие 5) [EBF0F2DC] (AR v2)
Трек 8 : извлечено точно (доверие 5) [F4B0E63E] (AR v2)
Трек 9 : извлечено точно (доверие 5) [911B65C3] (AR v2)
Трек 10 : извлечено точно (доверие 4) [C137D321] (AR v2)
Трек 11 : извлечено точно (доверие 5) [A1867A18] (AR v2)
Трек 12 : извлечено точно (доверие 5) [4CF0ADEC] (AR v2)

Все треки извлечены точно

Конец отчёта

==== Контрольная сумма отчёта 74C42833A488DFBEE7DBBB7F66DBAE0C572B4EB96D1D67C86F476246C148365C ====

Cue Sheet (.cue):

REM GENRE "Blues Rock"
REM DATE 2014
REM DISCID BA0B550C
REM COMMENT "ExactAudioCopy v1.0b3"
PERFORMER "Thorbjorn Risager & The Black Tornado"
TITLE "Too Many Roads"
FILE "Thorbjorn Risager & The Black Tornado - Too Many Roads.flac" WAVE
TRACK 01 AUDIO
TITLE "If You Wanna Leave"
PERFORMER "Thorbjorn Risager & The Black Tornado"
INDEX 01 00:00:00
TRACK 02 AUDIO
TITLE "Too Many Roads"
PERFORMER "Thorbjorn Risager & The Black Tornado"
INDEX 01 04:16:05
TRACK 03 AUDIO
TITLE "China Gate "
PERFORMER "Thorbjorn Risager & The Black Tornado"
INDEX 01 07:41:56
TRACK 04 AUDIO
TITLE "Paradise"
PERFORMER "Thorbjorn Risager & The Black Tornado"
INDEX 01 11:45:49
TRACK 05 AUDIO
TITLE "Drowning"
PERFORMER "Thorbjorn Risager & The Black Tornado"
INDEX 01 16:15:03
TRACK 06 AUDIO
TITLE "Backseat Driver"
PERFORMER "Thorbjorn Risager & The Black Tornado"
INDEX 01 20:38:72
TRACK 07 AUDIO
TITLE "Through The Tears "
PERFORMER "Thorbjorn Risager & The Black Tornado"
INDEX 01 24:33:37
TRACK 08 AUDIO
TITLE "High Rolling"
PERFORMER "Thorbjorn Risager & The Black Tornado"
INDEX 01 29:03:65
TRACK 09 AUDIO
TITLE "Long Forgotten Track"
PERFORMER "Thorbjorn Risager & The Black Tornado"
INDEX 01 33:14:26
TRACK 10 AUDIO
TITLE "Red Hot And Blue"
PERFORMER "Thorbjorn Risager & The Black Tornado"
INDEX 01 37:43:17
TRACK 11 AUDIO
TITLE "Rich Man"
PERFORMER "Thorbjorn Risager & The Black Tornado"
INDEX 01 41:35:67
TRACK 12 AUDIO
TITLE "Play On"
PERFORMER "Thorbjorn Risager & The Black Tornado"
INDEX 01 45:14:48

Отчёт auCDtect Task manager:

-----------------------

DON'T MODIFY THIS FILE

-----------------------

PERFORMER: auCDtect Task Manager, ver. 1.6.0 RC1 build 1.6.0.1
Copyright (c) 2008-2010 y-soft. All rights reserved
http://y-soft.org

ANALYZER: auCDtect: CD records authenticity detector, version 0.8.2
Copyright (c) 2004 Oleg Berngardt. All rights reserved.
Copyright (c) 2004 Alexander Djourik. All rights reserved.

FILE: Thorbjorn Risager & The Black Tornado - Too Many Roads.flac
Size: 340911675 Hash: BD45E7644D0925B00E7E1139F77C0A9B Accuracy: -m0
Conclusion: CDDA 100%
Signature: 2EE578BAB6D4AF569EB333533B2E2671CEF5E048

DRM log:

foobar2000 1.3.14 / Dynamic Range Meter 1.1.1
log date: 2017-03-17 07:41:25

--------------------------------------------------------------------------------
Analyzed: Thorbjorn Risager & The Black Tornado / Too Many Roads
--------------------------------------------------------------------------------

DR Peak RMS Duration Track
--------------------------------------------------------------------------------
DR5 -0.11 dB -6.19 dB 4:16 01-If You Wanna Leave
DR6 -0.11 dB -6.99 dB 3:26 02-Too Many Roads
DR8 -0.11 dB -10.94 dB 4:04 03-China Gate
DR6 -0.09 dB -6.98 dB 4:29 04-Paradise
DR7 -0.11 dB -8.37 dB 4:24 05-Drowning
DR6 -0.11 dB -7.32 dB 3:55 06-Backseat Driver
DR6 -0.10 dB -7.83 dB 4:30 07-Through The Tears
DR5 -0.08 dB -7.07 dB 4:10 08-High Rolling
DR6 -0.11 dB -7.76 dB 4:29 09-Long Forgotten Track
DR6 -0.10 dB -8.05 dB 3:53 10-Red Hot And Blue
DR8 -0.10 dB -8.60 dB 3:39 11-Rich Man
DR7 -0.10 dB -7.85 dB 3:07 12-Play On
--------------------------------------------------------------------------------

Number of tracks: 12
Official DR value: DR6

Samplerate: 44100 Hz
Channels: 2
Bits per sample: 16
Bitrate: 940 kbps
Codec: FLAC
================================================================================

2015 - Songs From The Road:

Продолжитeльность: 01:18:57
Издание: Ruf Records - RUF1219

Трeклист:

01. If You Wanna Leave (04:48)
02. Paradise (04:58)
03. Drowning (04:16)
04. Baby Please Don't Go (03:23)
05. Too Many Roads (03:20)
06. China Gate (04:12)
07. Rock'n'Roll Ride (06:26)
08. Through The Tears (04:25)
09. Long Forgotten Track (05:05)
10. On My Way (04:08)
11. All I Want (05:57)
12. High Rolling (05:01)
13. Let The Good Times Roll (11:25)
14. I Won't Let You Down (04:18)
15. Opener (07:10)

Отчёт EAC:

Exact Audio Copy V1.0 beta 3 from 29. August 2011

Отчёт EAC об извлечении, выполненном 22. февраля 2017, 12:53

Thorbjorn Risager & The Black Tornado / Songs From The Road

Дисковод: PLEXTOR DVDR PX-880SA Adapter: 1 ID: 0

Режим чтения : Достоверность
Использование точного потока : Да
Отключение кэша аудио : Да
Использование указателей C2 : Нет

Коррекция смещения при чтении : 6
Способность читать области Lead-in и Lead-out : Нет
Заполнение пропущенных сэмплов тишиной : Да
Удаление блоков с тишиной в начале и конце : Нет
При вычислениях CRC использовались нулевые сэмплы : Да
Интерфейс : Установленный внешний ASPI-интерфейс

Выходной формат : Пользовательский кодировщик
Выбранный битрейт : 1024 kBit/s
Качество : Высокий
Добавление ID3-тега : Нет
Утилита сжатия : C:\Program Files\Exact Audio Copy\FLAC\FLAC.EXE
Дополнительные параметры : -8 -V -T "ARTIST=%artist%" -T "ALBUM=%albumtitle%" -T "DATE=%year%" -T "GENRE=%genre%" -T "COMMENT=ripped by izia1956" %source%

TOC извлечённого CD

Трек | Старт | Длительность | Начальный сектор | Конечный сектор
---------------------------------------------------------------------
1 | 0:00.00 | 4:48.16 | 0 | 21615
2 | 4:48.16 | 4:58.18 | 21616 | 43983
3 | 9:46.34 | 4:16.04 | 43984 | 63187
4 | 14:02.38 | 3:23.38 | 63188 | 78450
5 | 17:26.01 | 3:19.67 | 78451 | 93442
6 | 20:45.68 | 4:12.40 | 93443 | 112382
7 | 24:58.33 | 6:26.39 | 112383 | 141371
8 | 31:24.72 | 4:25.46 | 141372 | 161292
9 | 35:50.43 | 5:05.51 | 161293 | 184218
10 | 40:56.19 | 4:08.29 | 184219 | 202847
11 | 45:04.48 | 5:57.65 | 202848 | 229687
12 | 51:02.38 | 5:01.02 | 229688 | 252264
13 | 56:03.40 | 11:24.70 | 252265 | 303634
14 | 67:28.35 | 4:18.26 | 303635 | 323010
15 | 71:46.61 | 7:10.49 | 323011 | 355309

Характеристики диапазона извлечения и сообщения об ошибках

Выбранный диапазон

Имя файла D:\BitComet\Thorbjorn Risager\2015 - Songs From The Road\Thorbjorn Risager & The Black Tornado - Songs From The Road.wav

Пиковый уровень 100.0 %
Скорость извлечения 2.9 X
Качество диапазона 99.9 %
CRC теста F1200A6D
CRC копии F1200A6D
Копирование... OK

Ошибок не произошло

AccurateRip: сводка

Трек 1 : извлечено точно (доверие 6) [797E98C6] (AR v2)
Трек 2 : извлечено точно (доверие 6) [A6B84124] (AR v2)
Трек 3 : извлечено точно (доверие 6) [7EB1FD54] (AR v2)
Трек 4 : извлечено точно (доверие 6) [E09BDB1B] (AR v2)
Трек 5 : извлечено точно (доверие 6) [89F9E686] (AR v2)
Трек 6 : извлечено точно (доверие 6) [02625E98] (AR v2)
Трек 7 : извлечено точно (доверие 6) [5A252C86] (AR v2)
Трек 8 : извлечено точно (доверие 6) [AC6CD612] (AR v2)
Трек 9 : извлечено точно (доверие 6) [66D8DA02] (AR v2)
Трек 10 : извлечено точно (доверие 6) [CB7B1109] (AR v2)
Трек 11 : извлечено точно (доверие 6) [1D22CC80] (AR v2)
Трек 12 : извлечено точно (доверие 6) [C491FCEF] (AR v2)
Трек 13 : извлечено точно (доверие 6) [049782C7] (AR v2)
Трек 14 : извлечено точно (доверие 6) [8F18696B] (AR v2)
Трек 15 : извлечено точно (доверие 5) [AD50AFAF] (AR v2)

Все треки извлечены точно

Конец отчёта

==== Контрольная сумма отчёта B5BB10A50CFFBE8C06753D1FB83BC92953CA31D57450BED165184FA43BFA9822 ====

Cue Sheet (.cue):

REM GENRE Blues-Rock
REM DATE 2015
REM DISCID CC12810F
REM COMMENT "ExactAudioCopy v1.0b3"
PERFORMER "Thorbjorn Risager & The Black Tornado"
TITLE "Songs From The Road"
FILE "Thorbjorn Risager & The Black Tornado - Songs From The Road.flac" WAVE
TRACK 01 AUDIO
TITLE "If You Wanna Leave"
PERFORMER "Thorbjorn Risager & The Black Tornado"
INDEX 01 00:00:00
TRACK 02 AUDIO
TITLE "Paradise"
PERFORMER "Thorbjorn Risager & The Black Tornado"
INDEX 01 04:48:16
TRACK 03 AUDIO
TITLE "Drowning"
PERFORMER "Thorbjorn Risager & The Black Tornado"
INDEX 00 09:46:33
INDEX 01 09:46:34
TRACK 04 AUDIO
TITLE "Baby Please Don't Go"
PERFORMER "Thorbjorn Risager & The Black Tornado"
INDEX 00 14:02:37
INDEX 01 14:02:38
TRACK 05 AUDIO
TITLE "Too Many Roads"
PERFORMER "Thorbjorn Risager & The Black Tornado"
INDEX 00 17:26:00
INDEX 01 17:26:01
TRACK 06 AUDIO
TITLE "China Gate"
PERFORMER "Thorbjorn Risager & The Black Tornado"
INDEX 00 20:45:67
INDEX 01 20:45:68
TRACK 07 AUDIO
TITLE "Rock'n'Roll Ride"
PERFORMER "Thorbjorn Risager & The Black Tornado"
INDEX 00 24:58:32
INDEX 01 24:58:33
TRACK 08 AUDIO
TITLE "Through The Tears"
PERFORMER "Thorbjorn Risager & The Black Tornado"
INDEX 00 31:24:71
INDEX 01 31:24:72
TRACK 09 AUDIO
TITLE "Long Forgotten Track"
PERFORMER "Thorbjorn Risager & The Black Tornado"
INDEX 00 35:50:42
INDEX 01 35:50:43
TRACK 10 AUDIO
TITLE "On My Way"
PERFORMER "Thorbjorn Risager & The Black Tornado"
INDEX 00 40:56:18
INDEX 01 40:56:19
TRACK 11 AUDIO
TITLE "All I Want"
PERFORMER "Thorbjorn Risager & The Black Tornado"
INDEX 00 45:04:47
INDEX 01 45:04:48
TRACK 12 AUDIO
TITLE "High Rolling"
PERFORMER "Thorbjorn Risager & The Black Tornado"
INDEX 00 51:02:37
INDEX 01 51:02:38
TRACK 13 AUDIO
TITLE "Let The Good Times Roll"
PERFORMER "Thorbjorn Risager & The Black Tornado"
INDEX 00 56:03:39
INDEX 01 56:03:40
TRACK 14 AUDIO
TITLE "I Won't Let You Down"
PERFORMER "Thorbjorn Risager & The Black Tornado"
INDEX 00 67:28:34
INDEX 01 67:28:35
TRACK 15 AUDIO
TITLE "Opener"
PERFORMER "Thorbjorn Risager & The Black Tornado"
INDEX 00 71:46:60
INDEX 01 71:46:61

Отчёт auCDtect Task manager:

-----------------------

DON'T MODIFY THIS FILE

-----------------------

PERFORMER: auCDtect Task Manager, ver. 1.6.0 RC1 build 1.6.0.1
Copyright (c) 2008-2010 y-soft. All rights reserved
http://y-soft.org

ANALYZER: auCDtect: CD records authenticity detector, version 0.8.2
Copyright (c) 2004 Oleg Berngardt. All rights reserved.
Copyright (c) 2004 Alexander Djourik. All rights reserved.

FILE: Thorbjorn Risager & The Black Tornado - Songs From The Road.flac
Size: 560914618 Hash: F1B005EFC768BD1F6B7E1E3F57D1B4EE Accuracy: -m0
Conclusion: CDDA 100%
Signature: 7ED77213A7A7135DBD19A9EA86371E04889D03D0

DRM log:

foobar2000 1.3.14 / Dynamic Range Meter 1.1.1
log date: 2017-03-17 07:42:51

--------------------------------------------------------------------------------
Analyzed: Thorbjorn Risager & The Black Tornado / Songs From The Road
--------------------------------------------------------------------------------

DR Peak RMS Duration Track
--------------------------------------------------------------------------------
DR8 -0.16 dB -9.55 dB 4:48 01-If You Wanna Leave
DR10 0.00 dB -11.18 dB 4:58 02-Paradise
DR11 -0.14 dB -13.04 dB 4:16 03-Drowning
DR8 -0.51 dB -10.48 dB 3:24 04-Baby Please Don't Go
DR8 -0.11 dB -10.04 dB 3:20 05-Too Many Roads
DR10 -0.13 dB -13.61 dB 4:13 06-China Gate
DR8 0.00 dB -9.52 dB 6:27 07-Rock'n'Roll Ride
DR8 -0.49 dB -10.20 dB 4:26 08-Through The Tears
DR9 -0.34 dB -10.94 dB 5:06 09-Long Forgotten Track
DR10 -0.19 dB -12.04 dB 4:08 10-On My Way
DR8 0.00 dB -9.16 dB 5:58 11-All I Want
DR8 0.00 dB -9.41 dB 5:01 12-High Rolling
DR8 0.00 dB -10.63 dB 11:25 13-Let The Good Times Roll
DR11 -0.12 dB -13.68 dB 4:18 14-I Won't Let You Down
DR9 0.00 dB -10.74 dB 7:11 15-Opener
--------------------------------------------------------------------------------

Number of tracks: 15
Official DR value: DR9

Samplerate: 44100 Hz
Channels: 2
Bits per sample: 16
Bitrate: 947 kbps
Codec: FLAC
================================================================================

2017 - Change My Game:

Продолжитeльность: 00:51:40
Издание: Ruf Records ‎– RUF1240

Трeклист:

01. I Used To Love You (3:51)
02. Dreamland (5:51)
03. Change My Game (5:00)
04. Holler 'n Moan (4:44)
05. Hard Time (4:10)
06. Long Gone (5:16)
07. Hold My Lover Tight (4:07)
08. Maybe It's Alright (4:28)
09. Train (3:46)
10. Lay My Burden Down (5:25)
11. City Of Love (4:58)

Отчёт EAC:

Exact Audio Copy V1.0 beta 3 from 29. August 2011

Отчёт EAC об извлечении, выполненном 22. февраля 2017, 10:41

Thorbjorn Risager & The Black Tornado / Change My Game

Дисковод: ATAPI iHAS424 A Adapter: 0 ID: 0

Режим чтения : Достоверность
Использование точного потока : Да
Отключение кэша аудио : Да
Использование указателей C2 : Нет

Коррекция смещения при чтении : 6
Способность читать области Lead-in и Lead-out : Нет
Заполнение пропущенных сэмплов тишиной : Да
Удаление блоков с тишиной в начале и конце : Нет
При вычислениях CRC использовались нулевые сэмплы : Да
Интерфейс : Установленный внешний ASPI-интерфейс

Выходной формат : Пользовательский кодировщик
Выбранный битрейт : 1024 kBit/s
Качество : Высокий
Добавление ID3-тега : Нет
Утилита сжатия : C:\Program Files\Exact Audio Copy\FLAC\FLAC.EXE
Дополнительные параметры : -8 -V -T "ARTIST=%artist%" -T "ALBUM=%albumtitle%" -T "DATE=%year%" -T "GENRE=%genre%" -T "COMMENT=ripped by izia1956" %source%

TOC извлечённого CD

Трек | Старт | Длительность | Начальный сектор | Конечный сектор
---------------------------------------------------------------------
1 | 0:00.00 | 3:51.03 | 0 | 17327
2 | 3:51.03 | 5:51.65 | 17328 | 43717
3 | 9:42.68 | 5:00.15 | 43718 | 66232
4 | 14:43.08 | 4:44.07 | 66233 | 87539
5 | 19:27.15 | 4:10.03 | 87540 | 106292
6 | 23:37.18 | 5:16.08 | 106293 | 130000
7 | 28:53.26 | 4:07.57 | 130001 | 148582
8 | 33:01.08 | 4:28.41 | 148583 | 168723
9 | 37:29.49 | 3:46.61 | 168724 | 185734
10 | 41:16.35 | 5:25.64 | 185735 | 210173
11 | 46:42.24 | 4:58.39 | 210174 | 232562

Характеристики диапазона извлечения и сообщения об ошибках

Выбранный диапазон

Имя файла D:\BitComet\Thorbjorn Risager\2017 - Change My Game\Thorbjorn Risager & The Black Tornado - Change My Game.wav

Пиковый уровень 98.9 %
Скорость извлечения 3.0 X
Качество диапазона 100.0 %
CRC теста 143A0E11
CRC копии 143A0E11
Копирование... OK

Ошибок не произошло

AccurateRip: сводка

Трек 1 отсутствует в базе данных
Трек 2 отсутствует в базе данных
Трек 3 отсутствует в базе данных
Трек 4 отсутствует в базе данных
Трек 5 отсутствует в базе данных
Трек 6 отсутствует в базе данных
Трек 7 отсутствует в базе данных
Трек 8 отсутствует в базе данных
Трек 9 отсутствует в базе данных
Трек 10 отсутствует в базе данных
Трек 11 отсутствует в базе данных

Ни одного трека нет в базе AccurateRip

Конец отчёта

==== Контрольная сумма отчёта EAD2600886129C083FD1A550D6F8CC3FEC17B64CA9F409C168925D52807987ED ====

Cue Sheet (.cue):

REM GENRE "Electric Blues, Blues Rock, Blues Soul"
REM DATE 2017
REM DISCID A20C1C0B
REM COMMENT "ExactAudioCopy v1.0b3"
PERFORMER "Thorbjorn Risager & The Black Tornado"
TITLE "Change My Game"
FILE "Thorbjorn Risager & The Black Tornado - Change My Game.flac" WAVE
TRACK 01 AUDIO
TITLE "I Used To Love You"
PERFORMER "Thorbjorn Risager & The Black Tornado"
INDEX 01 00:00:00
TRACK 02 AUDIO
TITLE "Dreamland"
PERFORMER "Thorbjorn Risager & The Black Tornado"
INDEX 01 03:51:03
TRACK 03 AUDIO
TITLE "Change My Game"
PERFORMER "Thorbjorn Risager & The Black Tornado"
INDEX 00 09:41:16
INDEX 01 09:42:68
TRACK 04 AUDIO
TITLE "Holler 'n Moan"
PERFORMER "Thorbjorn Risager & The Black Tornado"
INDEX 00 14:40:53
INDEX 01 14:43:08
TRACK 05 AUDIO
TITLE "Hard Time"
PERFORMER "Thorbjorn Risager & The Black Tornado"
INDEX 00 19:24:55
INDEX 01 19:27:15
TRACK 06 AUDIO
TITLE "Long Gone"
PERFORMER "Thorbjorn Risager & The Black Tornado"
INDEX 00 23:34:27
INDEX 01 23:37:18
TRACK 07 AUDIO
TITLE "Hold My Lover Tight"
PERFORMER "Thorbjorn Risager & The Black Tornado"
INDEX 00 28:50:12
INDEX 01 28:53:26
TRACK 08 AUDIO
TITLE "Maybe It's Alright"
PERFORMER "Thorbjorn Risager & The Black Tornado"
INDEX 00 33:00:05
INDEX 01 33:01:08
TRACK 09 AUDIO
TITLE "Train"
PERFORMER "Thorbjorn Risager & The Black Tornado"
INDEX 00 37:26:20
INDEX 01 37:29:49
TRACK 10 AUDIO
TITLE "Lay My Burden Down"
PERFORMER "Thorbjorn Risager & The Black Tornado"
INDEX 00 41:13:20
INDEX 01 41:16:35
TRACK 11 AUDIO
TITLE "City Of Love"
PERFORMER "Thorbjorn Risager & The Black Tornado"
INDEX 00 46:38:11
INDEX 01 46:42:24

Отчёт auCDtect Task manager:

-----------------------

DON'T MODIFY THIS FILE

-----------------------

PERFORMER: auCDtect Task Manager, ver. 1.6.0 RC1 build 1.6.0.1
Copyright (c) 2008-2010 y-soft. All rights reserved
http://y-soft.org

ANALYZER: auCDtect: CD records authenticity detector, version 0.8.2
Copyright (c) 2004 Oleg Berngardt. All rights reserved.
Copyright (c) 2004 Alexander Djourik. All rights reserved.

FILE: Thorbjorn Risager & The Black Tornado - Change My Game.flac
Size: 333321728 Hash: 077C03FD07F740BBF993C39845485C8B Accuracy: -m0
Conclusion: CDDA 100%
Signature: AE829F46D8767A9D2DC72DE99A47A54F691E07B7

DRM log:

foobar2000 1.3.14 / Dynamic Range Meter 1.1.1
log date: 2017-03-17 07:43:56

--------------------------------------------------------------------------------
Analyzed: Thorbjorn Risager & The Black Tornado / Change My Game
--------------------------------------------------------------------------------

DR Peak RMS Duration Track
--------------------------------------------------------------------------------
DR7 -1.49 dB -9.93 dB 3:51 01-I Used To Love You
DR5 -0.09 dB -7.22 dB 5:52 02-Dreamland
DR6 -0.09 dB -7.70 dB 5:00 03-Change My Game
DR6 -0.09 dB -8.05 dB 4:44 04-Holler 'n Moan
DR6 -0.09 dB -8.63 dB 4:10 05-Hard Time
DR7 -0.09 dB -9.04 dB 5:16 06-Long Gone
DR6 -0.09 dB -6.67 dB 4:08 07-Hold My Lover Tight
DR6 -0.09 dB -7.19 dB 4:29 08-Maybe It's Alright
DR7 -0.09 dB -10.46 dB 3:47 09-Train
DR9 -0.09 dB -11.49 dB 5:26 10-Lay My Burden Down
DR7 -0.09 dB -8.32 dB 4:59 11-City Of Love
--------------------------------------------------------------------------------

Number of tracks: 11
Official DR value: DR7

Samplerate: 44100 Hz
Channels: 2
Bits per sample: 16
Bitrate: 860 kbps
Codec: FLAC
================================================================================

Детали торрента:
Название:Thorbjorn Risager & The Black Tornado - Discography 8CD (2007 -2017) [FLAC|Lossless|image + .cue] <Blues-Rock>
Дата добавления:17 Мар 2017 06:31:00
Размер:2,81 GB
Раздают:3
Качают:0
Форум:Blues, Soul (Lossless)

All rights reserved © 2015-2018