TORRENTS43.XYZ

Скачать Потап и Настя - Золотые Киты (2017) [FLAC|Lossless|image + .cue] <Pop, R&B>


Потап и Настя - Золотые Киты (2017)
Жанр: Pop, R&B
Издание: Mozgi Entertainment - non
Источник рипа: Int2009
Продолжительность: 01:05:56

Кодек: FLAC
Битрейт: Lossless
Тип рипа: image + .cue

Треклист:
01. Не Пара
02. Крепкие Орешки
03. Не Люби Мне Мозги
04. Позвони Своей Зае
05. На Раёне
06. Чумачечая Весна
07. Не Хватило Воздуха
08. Всё Пучком
09. Не Могу Я Без Тебя
10. Вместе
11. Мы Отменяем К.С.
12. Прилелето
13. Если Вдруг
14. Любовь Со Скидкой

Далее:

15. Руруру
16. Уди Уди
17. Бумдиггибай
18. Стиль Собачки (feat. Бьянка)
19. Кончиками Пальцев
20. Умамы

Отчёт EAC:


Exact Audio Copy V1.3 from 2. September 2016

Отчёт EAC об извлечении, выполненном 12. марта 2017, 18:59

Потап и Настя / Золотые Киты

Дисковод: ASUS DRW-1814BLT Adapter: 1 ID: 0

Режим чтения : Достоверность
Использование точного потока : Да
Отключение кэша аудио : Да
Использование указателей C2 : Нет

Коррекция смещения при чтении : 6
Способность читать области Lead-in и Lead-out : Нет
Заполнение пропущенных сэмплов тишиной : Да
Удаление блоков с тишиной в начале и конце : Нет
При вычислениях CRC использовались нулевые сэмплы : Да
Интерфейс : Встроенный Win32-интерфейс для Win NT/2000

Выходной формат : Пользовательский кодировщик
Выбранный битрейт : 128 kBit/s
Качество : Высокий
Добавление ID3-тега : Нет
Утилита сжатия : C:\Program Files (x86)\Exact Audio Copy\Flac\flac.exe
Дополнительные параметры : -V -8 %source%

TOC извлечённого CD

Трек | Старт | Длительность | Начальный сектор | Конечный сектор
---------------------------------------------------------------------
1 | 0:00.00 | 2:54.57 | 0 | 13106
2 | 2:54.57 | 3:27.63 | 13107 | 28694
3 | 6:22.45 | 3:09.27 | 28695 | 42896
4 | 9:31.72 | 3:15.12 | 42897 | 57533
5 | 12:47.09 | 3:04.62 | 57534 | 71395
6 | 15:51.71 | 3:15.56 | 71396 | 86076
7 | 19:07.52 | 3:28.53 | 86077 | 101729
8 | 22:36.30 | 3:20.51 | 101730 | 116780
9 | 25:57.06 | 3:18.22 | 116781 | 131652
10 | 29:15.28 | 3:13.25 | 131653 | 146152
11 | 32:28.53 | 3:18.31 | 146153 | 161033
12 | 35:47.09 | 3:18.70 | 161034 | 175953
13 | 39:06.04 | 3:24.61 | 175954 | 191314
14 | 42:30.65 | 3:41.70 | 191315 | 207959
15 | 46:12.60 | 3:00.39 | 207960 | 221498
16 | 49:13.24 | 3:14.62 | 221499 | 236110
17 | 52:28.11 | 3:23.00 | 236111 | 251335
18 | 55:51.11 | 3:12.60 | 251336 | 265795
19 | 59:03.71 | 4:02.28 | 265796 | 283973
20 | 63:06.24 | 2:50.00 | 283974 | 296723

Характеристики диапазона извлечения и сообщения об ошибках

Выбранный диапазон

Имя файла F:\Торрент\Мои Раздачи\Album\Потап и Настя - Золотые Киты\Потап и Настя - Золотые Киты.wav

Пиковый уровень 100.0 %
Скорость извлечения 9.1 X
Качество диапазона 100.0 %
CRC теста 0A25C67A
CRC копии 0A25C67A
Копирование... OK

Ошибок не произошло

AccurateRip: сводка

Трек 1 отсутствует в базе данных
Трек 2 отсутствует в базе данных
Трек 3 отсутствует в базе данных
Трек 4 отсутствует в базе данных
Трек 5 отсутствует в базе данных
Трек 6 отсутствует в базе данных
Трек 7 отсутствует в базе данных
Трек 8 отсутствует в базе данных
Трек 9 отсутствует в базе данных
Трек 10 отсутствует в базе данных
Трек 11 отсутствует в базе данных
Трек 12 отсутствует в базе данных
Трек 13 отсутствует в базе данных
Трек 14 отсутствует в базе данных
Трек 15 отсутствует в базе данных
Трек 16 отсутствует в базе данных
Трек 17 отсутствует в базе данных
Трек 18 отсутствует в базе данных
Трек 19 отсутствует в базе данных
Трек 20 отсутствует в базе данных

Ни одного трека нет в базе AccurateRip

Конец отчёта

==== Контрольная сумма отчёта F85431B2358CFC121109A7AD5D1FDB383D1CC7A34D9603DDE4F4198EFF234BD7 ====

Cue Sheet (.cue):


REM GENRE R&B
REM DATE 2017
REM DISCID 470F7414
REM COMMENT "ExactAudioCopy v1.3"
PERFORMER "Потап и Настя"
TITLE "Золотые Киты"
FILE "Потап и Настя - Золотые Киты.flac" WAVE
TRACK 01 AUDIO
TITLE "Не Пара"
PERFORMER "Потап И Настя"
INDEX 01 00:00:00
TRACK 02 AUDIO
TITLE "Крепкие Орешки"
PERFORMER "Потап И Настя"
INDEX 01 02:54:57
TRACK 03 AUDIO
TITLE "Не Люби Мне Мозги"
PERFORMER "Потап И Настя"
INDEX 01 06:22:45
TRACK 04 AUDIO
TITLE "Позвони Своей Зае"
PERFORMER "Потап И Настя"
INDEX 01 09:31:72
TRACK 05 AUDIO
TITLE "На Раёне"
PERFORMER "Потап И Настя"
INDEX 01 12:47:09
TRACK 06 AUDIO
TITLE "Чумачечая Весна"
PERFORMER "Потап И Настя"
INDEX 01 15:51:71
TRACK 07 AUDIO
TITLE "Не Хватило Воздуха"
PERFORMER "Потап И Настя"
INDEX 01 19:07:52
TRACK 08 AUDIO
TITLE "Всё Пучком"
PERFORMER "Потап И Настя"
INDEX 01 22:36:30
TRACK 09 AUDIO
TITLE "Не Могу Я Без Тебя"
PERFORMER "Потап И Настя"
INDEX 01 25:57:06
TRACK 10 AUDIO
TITLE Вместе
PERFORMER "Потап И Настя"
INDEX 01 29:15:28
TRACK 11 AUDIO
TITLE "Мы Отменяем К.С."
PERFORMER "Потап И Настя"
INDEX 01 32:28:53
TRACK 12 AUDIO
TITLE Прилелето
PERFORMER "Потап И Настя"
INDEX 01 35:47:09
TRACK 13 AUDIO
TITLE "Если Вдруг"
PERFORMER "Потап И Настя"
INDEX 01 39:06:04
TRACK 14 AUDIO
TITLE "Любовь Со Скидкой"
PERFORMER "Потап И Настя"
INDEX 01 42:30:65
TRACK 15 AUDIO
TITLE Руруру
PERFORMER "Потап И Настя"
INDEX 01 46:12:60
TRACK 16 AUDIO
TITLE "Уди Уди"
PERFORMER "Потап И Настя"
INDEX 01 49:13:24
TRACK 17 AUDIO
TITLE Бумдиггибай
PERFORMER "Потап И Настя"
INDEX 01 52:28:11
TRACK 18 AUDIO
TITLE "Стиль Собачки"
PERFORMER "Потап И Настя Feat. Бьянка"
INDEX 01 55:51:11
TRACK 19 AUDIO
TITLE "Кончиками Пальцев"
PERFORMER "Потап И Настя"
INDEX 01 59:03:71
TRACK 20 AUDIO
TITLE Умамы
PERFORMER "Потап И Настя"
INDEX 01 63:06:24

Отчёт auCDtect Task manager:


-----------------------

DON'T MODIFY THIS FILE

-----------------------

PERFORMER: auCDtect Task Manager, ver. 1.6.0 RC1 build 1.6.0.1
Copyright (c) 2008-2010 y-soft. All rights reserved
http://y-soft.org

ANALYZER: auCDtect: CD records authenticity detector, version 0.8.2
Copyright (c) 2004 Oleg Berngardt. All rights reserved.
Copyright (c) 2004 Alexander Djourik. All rights reserved.

FILE: Потап и Настя - Золотые Киты.flac
Size: 494242632 Hash: FD216A0156AA0724CB730FBB55666508 Accuracy: -m0
Conclusion: CDDA 100%
Signature: 1AA54C563EEF5A0A837436734FA4B1F56F710C04
Детали торрента:
Название:Потап и Настя - Золотые Киты (2017) [FLAC|Lossless|image + .cue] <Pop, R&B>
Дата добавления:15 Мар 2017 18:50:30
Размер:493 MB
Раздают:4
Качают:0
Форум:Отечественная поп-музыка (Lossless)

All rights reserved © 2015-2018