TORRENTS43.XYZ

Скачать Сергей Наговицын - Дори-Дори... (1997) [FLAC|Lossless|image + .cue] <Шансон>


Сергей Наговицын - Дори-Дори... (1997)
Жанр: Шансон
Продолжительность: 01:02:45

Кодек: FLAC
Битрейт: Lossless
Тип рипа: image + .cue

Треклист:
01. Дори-Дори...
02. Динамовский каток
03. Улица
04. До утра
05. Снег растает
06. Охота
07. Выборы
08. Встреча
09. Маячок
10. По весне
11. За облака
12. Светка
13. Вечер
14. На привокзальной площади
15. Кабачок
16. Мадам

Отчёт EAC:


Exact Audio Copy V1.0 beta 4 from 7. December 2014

Отчёт EAC об извлечении, выполненном 30. декабря 2016, 19:58

Сергей Наговицын / Дори-Дори...

Дисковод: HL-DT-STDVDRAM GU71N Adapter: 1 ID: 0

Режим чтения : Достоверность
Использование точного потока : Да
Отключение кэша аудио : Да
Использование указателей C2 : Нет

Коррекция смещения при чтении : 6
Способность читать области Lead-in и Lead-out : Нет
Заполнение пропущенных сэмплов тишиной : Да
Удаление блоков с тишиной в начале и конце : Нет
При вычислениях CRC использовались нулевые сэмплы : Да
Интерфейс : Встроенный Win32-интерфейс для Win NT/2000

Выходной формат : Пользовательский кодировщик
Выбранный битрейт : 128 kBit/s
Качество : Высокий
Добавление ID3-тега : Нет
Утилита сжатия : C:\Program Files\Exact Audio Copy\Flac\flac.exe
Дополнительные параметры : -V -8 -T "Date=%year%" -T "Genre=%genre%" %source%

TOC извлечённого CD

Трек | Старт | Длительность | Начальный сектор | Конечный сектор
---------------------------------------------------------------------
1 | 0:00.00 | 3:33.30 | 0 | 16004
2 | 3:33.30 | 3:47.43 | 16005 | 33072
3 | 7:20.73 | 3:32.55 | 33073 | 49027
4 | 10:53.53 | 3:35.67 | 49028 | 65219
5 | 14:29.45 | 2:45.40 | 65220 | 77634
6 | 17:15.10 | 4:10.15 | 77635 | 96399
7 | 21:25.25 | 4:05.28 | 96400 | 114802
8 | 25:30.53 | 4:34.40 | 114803 | 135392
9 | 30:05.18 | 4:42.22 | 135393 | 156564
10 | 34:47.40 | 3:24.60 | 156565 | 171924
11 | 38:12.25 | 3:43.10 | 171925 | 188659
12 | 41:55.35 | 4:56.15 | 188660 | 210874
13 | 46:51.50 | 4:36.55 | 210875 | 231629
14 | 51:28.30 | 3:20.30 | 231630 | 246659
15 | 54:48.60 | 3:42.38 | 246660 | 263347
16 | 58:31.23 | 4:13.55 | 263348 | 282377

Характеристики диапазона извлечения и сообщения об ошибках

Выбранный диапазон

Имя файла E:\shansonchik\Сергей Наговицын - Дори-Дори....wav

Пиковый уровень 100.0 %
Скорость извлечения 5.0 X
Качество диапазона 100.0 %
CRC теста 54710A78
CRC копии 54710A78
Копирование... OK

Ошибок не произошло

Конец отчёта

==== Контрольная сумма отчёта BBDF982A96514E494A35999C1AD0D122B1C7ED33B7CCB6EF24EEDFAF508B9607 ====

Отчёт auCDtect Task manager:


-----------------------

DON'T MODIFY THIS FILE

-----------------------

PERFORMER: auCDtect Task Manager, ver. 1.6.0 RC1 build 1.6.0.1
Copyright (c) 2008-2010 y-soft. All rights reserved
http://y-soft.org

ANALYZER: auCDtect: CD records authenticity detector, version 0.8.2
Copyright (c) 2004 Oleg Berngardt. All rights reserved.
Copyright (c) 2004 Alexander Djourik. All rights reserved.

FILE: Сергей Наговицын - Дори-Дори....flac
Size: 404048512 Hash: DDCC2A1CDFBC292440830C4E8F6B4972 Accuracy: -m0
Conclusion: CDDA 100%
Signature: 5D0A1CEB062545C3C79EC9B148D49A4DDE2AB561

Спектрограмма:



YouTube
Детали торрента:
Название:Сергей Наговицын - Дори-Дори... (1997) [FLAC|Lossless|image + .cue] <Шансон>
Дата добавления:11 Мар 2017 14:57:11
Размер:404 MB
Раздают:
Качают:0
Форум:Русский Шансон (Lossless)

All rights reserved © 2015-2018