TORRENTS43.XYZ

Скачать Западня для генерала / Klopka za generala (1971) DVDRip


Западня для генерала / Klopka za generala (1971) DVDRip
Производство: Югославия, Босна-фильм
Жанр: Военный, Драма

Режиссер: Драган Маркович, Лука Павлович
Актеры: Беким Фехмиу, Люба Тадич, Елена Йванович-Жигон, Раде Маркович, Абдурахман Шаля, Воислав Мирич, Душан Яничиевич, Драгомир Фелба

Описание:
В послевоенной Югославии действуют банды, грабящие и убивающие мирных жителей. Их руководитель, генерал Дража Михайлович, скрывается в горах. Захватить его поручено опытному разведчику....


Возраст: этот продукт не был классифицирован

Релиз от: ФЕНИКС

Продолжительность: 01:32:37
Качество видео: DVDRip
Перевод: Дублированный
Автор перевода: СССР, Ленфильм
Субтитры: отсутствуют

Видео: Xvid, 704x432, ~2018 Kbps
Аудио: AC3, 2 ch, 256 Kbps

Mediainfo:


Общее
Полное имя : D:\Западня для генерала (1971) DVDRip.avi
Формат : AVI
Формат/Информация : Audio Video Interleave
Размер файла : 1,48 Гбайт
Продолжительность : 1 ч. 32 м.
Общий поток : 2284 Кбит/сек
Программа кодирования : VirtualDubMod 1.5.10.2 (build 2540/release)
Библиотека кодирования : VirtualDubMod build 2540/release

Видео
Идентификатор : 0
Формат : MPEG-4 Visual
Профиль формата : Advanced Simple@L5
Параметр BVOP формата : 2
Параметр QPel формата : Нет
Параметр GMC формата : Без точки перехода
Параметр матрицы формата : Default (H.263)
Идентификатор кодека : XVID
Идентификатор кодека/Подсказка : XviD
Продолжительность : 1 ч. 32 м.
Битрейт : 2018 Кбит/сек
Ширина : 704 пикселя
Высота : 432 пикселя
Соотношение сторон : 16:10
Частота кадров : 25,000 кадров/сек
Цветовое пространство : YUV
Субдискретизация насыщенности : 4:2:0
Битовая глубина : 8 бит
Тип развёртки : Прогрессивная
Метод сжатия : С потерями
Бит/(Пиксели*Кадры) : 0.265
Размер потока : 1,31 Гбайт (88%)
Библиотека кодирования : XviD 1.2.0.dev47 (UTC 2006-11-01)

Аудио
Идентификатор : 1
Формат : AC-3
Формат/Информация : Audio Coding 3
Расширение режима : CM (complete main)
Параметр Endianness формата : Big
Идентификатор кодека : 2000
Продолжительность : 1 ч. 32 м.
Вид битрейта : Постоянный
Битрейт : 256 Кбит/сек
Каналы : 2 канала
Расположение каналов : Front: L R
Частота : 48,0 КГц
Частота кадров : 31,250 кадров/сек (1536 spf)
Метод сжатия : С потерями
Размер потока : 170 Мбайт (11%)
Выравнивание : Разделение по промежуткам
Продолжительность промежутка : 40 мс. (1,00 видеокадр)
Время предзагрузки промежутка : 500 мс.

Дополнительная информация:

Роли дублировали:
Владимир Костин, Игорь Ефимов, Александра Завьялова, Лев Жуков, Юрий Соловьев, Юрий Дедович, Лариса Архипова, Михаил Дубрава.

Фильм дублирован на киностудии "ЛЕНФИЛЬМ"
Режиссер дубляжа: М.Короткевич
Звукооператор: Б.Антонов
Автор русского текста: Д.Брускин
Редактор: А.Михайлова
Скриншоты:

Дополнительные скриншоты:



Все одноименные релизы в Клубе
Детали торрента:
Название:Западня для генерала / Klopka za generala (1971) DVDRip
Дата добавления:10 Мар 2017 20:38:28
Размер:1,48 GB
Раздают:
Качают:0
Форум:Старые Зарубежные Фильмы (HD*Rip/LQ, DVDRip, SATRip, VHSRip)

All rights reserved © 2015-2018