TORRENTS43.XYZ

Скачать Барби: Рок-принцесса / Barbie in Rock 'N Royals (2015) BDRip [H.264/1080p]


Барби: Рок-принцесса / Barbie in Rock 'N Royals (2015) BDRip [H.264/1080p]
Производство: США / Universal Studios
Жанр: Мультфильм, фэнтези

Режиссер: Карен Дж. Ллойд
Актёры: Джейсон О’Мара, Томас Гибсон, Морена Баккарин, Джанкарло Эспозито, Дэвид МакКаллум, Ксандер Беркли, Шон Маэр, Фред Татаскьор, Брюс Томас, Стюарт АлланКарен Дж. Ллойд

Описание:
Жизнь принцессы Кортни переворачивается с ног на голову, когда она меняется местами со знаменитой рок-певицей Эрикой. При отправлении в летний лагерь случается организационная путаница, и принцессу Кортни отправляют в лагерь для поп-певиц, а Эрику — в королевский лагерь. Пока начальники лагерей пытаются устранить беспорядок, Эрика и Кортни приспосабливаются к новой для себя среде и развлекаются, заводя новых друзей. А когда девушки узнают, что из-за враждующих боссов оба лагеря могут закрыть, они решают объединить свои таланты, чтобы выступить с уникальным музыкальным номером.


Дата мировой премьеры: 14 августа 2015

Продолжительность: 01:23:12
Качество видео: BDRip
Перевод: Дублированный (Лицензия BD EUR)
Язык субтитров: Английский
Вид субтитров: Вшитые отключаемые

Видео: AVC/H.264, 1920x1080, ~8854 Kbps
Аудио: AC3, 6 ch, 640 Kbps - Русский
Аудио: DTS , 6 ch, 1509 Kbps - Английский

Mediainfo:


General
Unique ID : 183396547253380619308545953336145766485 (0x89F8E3E47DC9AA75829D6B9C5E186855)
Complete name : E:\Barbie.R.Royals.2016.BDRip.1080p.mkv
Format : Matroska
Format version : Version 4 / Version 2
File size : 6.52 GiB
Duration : 1 h 23 min
Overall bit rate : 11.2 Mb/s
Encoded date : UTC 2017-02-09 00:08:20
Writing application : mkvmerge v9.7.1 ('Pandemonium') 64bit
Writing library : libebml v1.3.4 + libmatroska v1.4.5

Video
ID : 1
Format : AVC
Format/Info : Advanced Video Codec
Format profile : High@L4.1
Format settings, CABAC : Yes
Format settings, ReFrames : 4 frames
Codec ID : V_MPEG4/ISO/AVC
Bit rate : 8 854 kb/s
Width : 1 920 pixels
Height : 1 080 pixels
Display aspect ratio : 16:9
Frame rate mode : Variable
Original frame rate : 23.976 FPS
Color space : YUV
Chroma subsampling : 4:2:0
Bit depth : 8 bits
Scan type : Progressive
Writing library : x264 core 148 r2762M 90a61ec
Encoding settings : cabac=1 / ref=4 / deblock=1:-3:-3 / analyse=0x3:0x113 / me=umh / subme=11 / psy=1 / psy_rd=1.00:0.00 / mixed_ref=1 / me_range=32 / chroma_me=1 / trellis=2 / 8x8dct=1 / cqm=0 / deadzone=21,11 / fast_pskip=0 / chroma_qp_offset=-2 / threads=12 / lookahead_threads=3 / sliced_threads=0 / nr=0 / decimate=0 / interlaced=0 / bluray_compat=0 / constrained_intra=0 / bframes=10 / b_pyramid=2 / b_adapt=2 / b_bias=0 / direct=2 / weightb=1 / open_gop=0 / weightp=2 / keyint=230 / keyint_min=23 / scenecut=40 / intra_refresh=0 / rc=crf / mbtree=0 / crf=17.5 / qcomp=0.70 / qpmin=3 / qpmax=69 / qpstep=4 / ip_ratio=1.20 / pb_ratio=1.10 / aq=3:0.80
Default : Yes
Forced : No
Color range : Limited
Color primaries : BT.709
Transfer characteristics : BT.709
Matrix coefficients : BT.709

Audio #1
ID : 2
Format : AC-3
Format/Info : Audio Coding 3
Mode extension : CM (complete main)
Format settings, Endianness : Big
Codec ID : A_AC3
Duration : 1 h 23 min
Bit rate mode : Constant
Bit rate : 640 kb/s
Channel(s) : 6 channels
Channel positions : Front: L C R, Side: L R, LFE
Sampling rate : 48.0 kHz
Frame rate : 31.250 FPS (1536 spf)
Compression mode : Lossy
Stream size : 381 MiB (6%)
Language : Russian
Default : Yes
Forced : No

Audio #2
ID : 3
Format : DTS
Format/Info : Digital Theater Systems
Mode : 16
Format settings, Endianness : Big
Codec ID : A_DTS
Duration : 1 h 23 min
Bit rate mode : Constant
Bit rate : 1 509 kb/s
Channel(s) : 6 channels
Channel positions : Front: L C R, Side: L R, LFE
Sampling rate : 48.0 kHz
Frame rate : 93.750 FPS (512 spf)
Bit depth : 16 bits
Compression mode : Lossy
Delay relative to video : 5 ms
Stream size : 898 MiB (13%)
Language : English
Default : No
Forced : No

Text
ID : 4
Format : PGS
Muxing mode : zlib
Codec ID : S_HDMV/PGS
Codec ID/Info : Picture based subtitle format used on BDs/HD-DVDs
Language : English
Default : No
Forced : No

Menu
00:00:00.000 : en:00:00:00.000
00:07:51.137 : en:00:07:51.137
00:14:19.900 : en:00:14:19.900
00:22:15.625 : en:00:22:15.625
00:29:31.269 : en:00:29:31.269
00:38:58.711 : en:00:38:58.711
00:44:12.274 : en:00:44:12.274
00:51:55.070 : en:00:51:55.070
00:57:35.410 : en:00:57:35.410
01:03:33.100 : en:01:03:33.100
01:12:26.675 : en:01:12:26.675
01:17:32.606 : en:01:17:32.606
Скриншоты:


Все одноименные релизы в Клубе

Смотреть Online

http://moonwalk.cc/video/ee13b8c2335bd0ef/iframe
Детали торрента:
Название:Барби: Рок-принцесса / Barbie in Rock 'N Royals (2015) BDRip [H.264/1080p]
Дата добавления:09 Фев 2017 09:35:45
Размер:6,52 GB
Раздают:1
Качают:0
Форум:Зарубежные Мультфильмы (HD)

All rights reserved © 2015-2018