TORRENTS43.XYZ

Скачать Колобанга (2015-2016) WEB-DL [H.264/1080p-LQ] (сезон 1 - 2, серии 1-26 из 26)


Колобанга (2015-2016) WEB-DL [H.264/1080p-LQ] (сезон 1 - 2, серии 1-26 из 26)
Производство: Россия | Колобанга
Жанр: Приключения, Детектив, Детский

Режиссер: Александр Романец, Вячеслав Марченко

Роли озвучивали: Илья Дорогов, Екатерина Тарасова, Сергей Васин, Валерий Медвелев, Олег Кучин, Алексей Маланьин, Денис Заречнов, Никита Погодаев, Анастасия Сагайдак, Александр Романец, Александр Домарацкий, Татьяна Ивлева, Дмитрий Звягинцев, Валерий Хамин, Евгений Куликов, Эрнест Корнышев, Елена Шемякина, Вячеслав Марченко, Дмитрий Хозин, Юрий Павлов, Майя Салимуллина

Описание:
В городке Колобанга живут всем известные смайлы-колобки. Они отвечают за электронную переписку Антона и передают в сообщениях его эмоции. Жизнь колобков вполне можно было бы назвать веселой и беззаботной, если бы не одно происшествие: однажды из Колобанги похищают почтовую собачку Атоса. Пока Сыщик устраивает допросы и ищет свидетелей, смелые друзья Колобок, Умник и Челка пускаются в невероятную Интернет-авантюру с неожиданной развязкой


Возраст: 6+ (зрителям, достигшим 6 лет)
Дата российской премьеры: 19 октября 2015
Колобанга - Официальный сайт

Релиз от: ExKinoRay@Merci

Продолжительность: ~ 00:12:00 серия
Качество видео: WEB-DL 1080p-LQ
Перевод: Не требуется (русский)
Субтитры: Отсутствуют

Видео: AVC/H.264, 1920x1080, ~ 2852 kbpc
Аудио: AAC, 2 ch, 126 kbps

Список серий:

s1e01. И все-таки он существует!
s1e02. Таинственное исчезновение
s1e03. Первые подозреваемые
s1e04. Проверка на вирусы.Безрезультатно
s1e05. Интернет-портал
s1e06. По ту сторону Интернета
s1e07. Охота на Майдума
s1e08. Спасение Глюка
s1e09. Удалить любой ценой!
s1e10. В поисках Гангстера
s1e11. Добро пожаловать в Фидонет!
s1e12. Чего хотят инопланетяне?

s2e13. Неожиданный гость
s2e14. Встреча с Оракулом
s2e15. Цветное предсказание
s2e16. Щит радости
s2e17. Интернет-сёрфинг
s2e18. Безумный отряд
s2e19. Тайник
s2e20. Маячок Полифагуса
s2e21. Социальная сеть
s2e22. Побег
s2e23. Спам-атака
s2e24. Исходный код
s2e25. Вторжение
s2e26. Мы еще встретимся!

Mediainfo:


Общее
Полное имя : D:\Загрузки uTorrent\Колобанга. W-1080p-merci-\s1e01. И все-таки он существует! Full-HD-merci-.mp4
Формат : MPEG-4
Профиль формата : Base Media
Идентификатор кодека : isom (isom/iso2/avc1/mp41)
Размер файла : 258 Мбайт
Продолжительность : 12 м. 5 с.
Режим общего битрейта : Переменный
Общий поток : 2981 Кбит/сек
Дата кодирования : UTC 2016-09-30 17:08:17
Дата пометки : UTC 2016-09-30 17:08:17

Видео
Идентификатор : 1
Формат : AVC
Формат/Информация : Advanced Video Codec
Профиль формата : High@L4
Параметр CABAC формата : Да
Параметр ReFrames формата : 3 кадра
Идентификатор кодека : avc1
Идентификатор кодека/Информация : Advanced Video Coding
Продолжительность : 12 м. 5 с.
Битрейт : 2852 Кбит/сек
Ширина : 1920 пикселей
Высота : 1080 пикселей
Соотношение сторон : 16:9
Режим частоты кадров : Постоянный
Частота кадров : 25,000 кадров/сек
Цветовое пространство : YUV
Субдискретизация насыщенности : 4:2:0
Битовая глубина : 8 бит
Тип развёртки : Прогрессивная
Бит/(Пиксели*Кадры) : 0.055
Размер потока : 246 Мбайт (96%)
Дата кодирования : UTC 2016-09-30 17:08:17
Дата пометки : UTC 2016-09-30 17:08:17
Цветовой диапазон : Limited
Основные цвета : BT.709
Характеристики трансфера : BT.709
Коэффициенты матрицы : BT.709

Аудио
Идентификатор : 2
Формат : AAC
Формат/Информация : Advanced Audio Codec
Профиль формата : LC
Идентификатор кодека : 40
Продолжительность : 12 м. 5 с.
Вид битрейта : Переменный
Битрейт : 126 Кбит/сек
Каналы : 2 канала
Расположение каналов : Front: L R
Частота : 44,1 КГц
Частота кадров : 43,066 кадра/сек (1024 spf)
Метод сжатия : С потерями
Размер потока : 10,9 Мбайт (4%)
Default : Да
Alternate group : 1
Дата кодирования : UTC 2016-09-30 17:08:50
Дата пометки : UTC 2016-09-30 17:08:50
Скриншоты:


Все одноименные релизы в Клубе

Смотреть Online

http://37.220.36.15/video/45118ef357536226/iframe
Детали торрента:
Название:Колобанга (2015-2016) WEB-DL [H.264/1080p-LQ] (сезон 1 - 2, серии 1-26 из 26)
Дата добавления:08 Фев 2017 13:57:38
Размер:5,75 GB
Раздают:2
Качают:0
Форум:Отечественные Мультсериалы

All rights reserved © 2015-2018