TORRENTS43.XYZ

Скачать Колония / Colony (2017) WEB-DL [H.264/720p-LQ] (сезон 2, серии 1-13 из 13) OmskBird [AD]


Колония / Colony (2017) WEB-DL [H.264/720p-LQ] (сезон 2, серии 1-13 из 13) OmskBird
Производство: США
Жанр: фантастика

Режиссер: Хуан Хосе Кампанелла
Актеры: Джош Холлоуэй, Сара Уэйн Кэллис, Аэдин Минкс, Чарльз Бэйкер, Тристен Бэнкстон, Том Бейер, Хилти Бауэн, Джонни Канниццаро, Джастин Чу-Кэри, Ной Крафт, Изабелла Крамп, Купер Дж. Фридман и др.

Описание:
Действие разворачивается в недалёком будущем в Лос-Анджелесе, оккупированном злобными пришельцами. Пока захватчики не стремятся к полному уничтожению землян, но устанавливают над нами тотальный контроль. В изменившемся мире человеческая раса делится на два лагеря. Одни подчиняются и приспосабливаются жить под гнётом новой власти. Другие уходят в партизаны, чтобы сопротивляться колонистам.
В непростой ситуации оказывается главный герой, Уилл Боуман (Джош Холлоуэй), ранее служивший в ФБР.


Релиз от: OmskBird

Продолжительность: ~00:43:00 серия
Качество видео: WEB-DL
Перевод: Многоголосый закадровый, профессиональный - OmskBird
Субтитры: английские
Реклама: присутствуют аудио вставки рекламы

Видео: AVC/H.264, 1280x720 (16:9), ~4000 kbps
Аудио # rus: AC3, 6 ch, 384 kbps, CBR - многоголосый закадровый
Аудио # eng: AC3, 6 ch, 384 kbps, CBR - оригинал

Mediainfo:


General
Unique ID : 223101891317642019538490037679699766504 (0xA7D7DC7F0FCA21E09CF211717917ACE8)
Complete name : G:\Films\Colony.S02.720p.WEB-DL.OmskBird\Colony.S02E01.720p.WEB-DL.OmskBird.mkv
Format : Matroska
Format version : Version 4 / Version 2
File size : 1.44 GiB
Duration : 43mn 0s
Overall bit rate : 4 791 Kbps
Encoded date : UTC 2017-01-14 09:48:53
Writing application : mkvmerge v9.7.1 ('Pandemonium') 64bit
Writing library : libebml v1.3.4 + libmatroska v1.4.5

Video
ID : 1
Format : AVC
Format/Info : Advanced Video Codec
Format profile : High@L3.1
Format settings, CABAC : No
Format settings, ReFrames : 2 frames
Codec ID : V_MPEG4/ISO/AVC
Duration : 43mn 0s
Bit rate : 4 021 Kbps
Width : 1 280 pixels
Height : 720 pixels
Display aspect ratio : 16:9
Frame rate mode : Constant
Frame rate : 23.976 (24000/1001) fps
Color space : YUV
Chroma subsampling : 4:2:0
Bit depth : 8 bits
Scan type : Progressive
Bits/(Pixel*Frame) : 0.182
Stream size : 1.21 GiB (84%)
Language : English
Default : Yes
Forced : No
Color range : Limited
Color primaries : BT.709
Transfer characteristics : BT.709
Matrix coefficients : BT.709

Audio #1
ID : 2
Format : AC-3
Format/Info : Audio Coding 3
Mode extension : CM (complete main)
Format settings, Endianness : Big
Codec ID : A_AC3
Duration : 43mn 0s
Bit rate mode : Constant
Bit rate : 384 Kbps
Channel(s) : 6 channels
Channel positions : Front: L C R, Side: L R, LFE
Sampling rate : 48.0 KHz
Frame rate : 31.250 fps (1536 spf)
Compression mode : Lossy
Stream size : 118 MiB (8%)
Title : OmskBird 5.1
Language : Russian
Default : Yes
Forced : No

Audio #2
ID : 3
Format : AC-3
Format/Info : Audio Coding 3
Mode extension : CM (complete main)
Format settings, Endianness : Big
Codec ID : A_AC3
Duration : 43mn 0s
Bit rate mode : Constant
Bit rate : 384 Kbps
Channel(s) : 6 channels
Channel positions : Front: L C R, Side: L R, LFE
Sampling rate : 48.0 KHz
Frame rate : 31.250 fps (1536 spf)
Compression mode : Lossy
Stream size : 118 MiB (8%)
Title : eng
Language : English
Default : No
Forced : No

Text
ID : 4
Format : UTF-8
Codec ID : S_TEXT/UTF8
Codec ID/Info : UTF-8 Plain Text
Duration : 42mn 1s
Bit rate : 52 bps
Count of elements : 550
Stream size : 16.1 KiB (0%)
Title : CC
Language : English
Default : No
Forced : No

Список серий:

01. Eleven.Thirteen
02. Somewhere Out There
03. Sublimation
04. Panopticon
05. Company Man
06. Fallout
07. Free Radicals
08. Good Intentions
09. Taman Shud
10. The Garden of Beasts
11. Lost Boy
12. Seppuku
13. Ronin

Подготовка релиза:

Релиз-группа: OmskBird
Роли озвучивали: Павел Ярощик, Алексей Гнеушев, Владислав Данилов, Ольга Федорова
Перевод: Никита Коваль
Звукорежиссер: Павел Квентов
Постер: Ксения Просветова
Монтаж и сведение звука: Юрий Гамов

Раздача ведётся путём добавления новых серий:

Раздача ведётся путём добавления новых серий; при каждом добавлении создаётся новый торрент. Чтобы начать докачку новой серии, пользователям необходимо сделать следующее:
(1) остановить скачивание,
(2) удалить старый торрент у себя из клиента (старые серии удалять не надо),
(3) скачать новый торрент и запустить его у себя в клиенте вместо старого, при этом указать клиенту путь в старую папку куда и должно происходить скачивание новых серий.

Ваш клиент при этом должен произвести хеширование (проверку) старой папки (если не производит сам - помогите ему сделать это), и будет докачивать только те серии которых у вас ещё нет. Старые серии при этом не удаляются, а продолжают раздаваться!

Eсли вы уже удалили старые серии, то предотвратить повторную закачку старых серий можно, отжав галочку в соответствующих местах при запуске нового торрента. По возможности, желательно не удалять старые серии как можно дольше чтобы релизёр не столько продолжал раздавать старые серии, а смог сконцентрироваться на новых.
Скриншоты:


Все одноименные релизы в Клубе

Смотреть Online

http://moonwalk.cc/serial/0ed02d6af67df19c3c947100c4936b12/iframe
Детали торрента:
Название:Колония / Colony (2017) WEB-DL [H.264/720p-LQ] (сезон 2, серии 1-13 из 13) OmskBird [AD]
Дата добавления:08 Апр 2017 21:57:03
Размер:18,6 GB
Раздают:1
Качают:1
Форум:Зарубежные сериалы

All rights reserved © 2015-2018