TORRENTS43.XYZ

Скачать Николай Ягодкин | Kypc-интeнсив «Развитие памяти и внимания» (2013) PCRec [H.264]


Николай Ягодкин | Kypc-интeнсив «Развитие памяти и внимания» (2013) PCRec [H.264]
Автор (режиссер): Николай Ягодкин
Производство: Advance club
Жанр: Обучение, Мнемотехники

Описание:
Выработка навыков быстрого запоминания со 100% точностью большого объёма информации любого вида на неограниченный срок, быстрой обработки и структурирования информации, эффективного овладения новыми навыками и знаниями в любой сфере.

Пройдя курс, Вы научитесь запоминать:
- тексты со всей точной информацией
- имена людей, дни рождения и номера телефонов
- любые структуры данных (классификации, таблицы, схемы и т.д.)
- любые последовательности (списки, ноты, движения – каты, танцы и т.д.)
- иностранные слова и иероглифы
- географические и игральные карты
и многое другое

Продолжительность: 15:47:29
Качество видео: HDRip

Видео: AVC/H.264, 1280х732, ~1207 Kbps
Аудио: AAC, 2 ch, 245 Kbps, VBR

Mediainfo:

Код: выделить все

General
Complete name                            : C:\Torrents\Ягодкин Николай - Kypc-интeнсив «Развития памяти и внимания» (2013)\День 1 - Часть 1.mp4
Format                                   : MPEG-4
Format profile                           : Base Media / Version 2
Codec ID                                 : mp42
File size                                : 1.84 GiB
Duration                                 : 3h 0mn
Overall bit rate mode                    : Variable
Overall bit rate                         : 1 457 Kbps
Encoded date                             : UTC 2013-03-30 17:10:06
Tagged date                              : UTC 2013-03-30 20:49:39

Video
ID                                       : 1
Format                                   : AVC
Format/Info                              : Advanced Video Codec
Format profile                           : Main@L3.2
Format settings, CABAC                   : Yes
Format settings, ReFrames                : 5 frames
Codec ID                                 : avc1
Codec ID/Info                            : Advanced Video Coding
Duration                                 : 3h 0mn
Bit rate                                 : 1 207 Kbps
Width                                    : 1 280 pixels
Height                                   : 732 pixels
Display aspect ratio                     : 16:9
Frame rate mode                          : Constant
Frame rate                               : 30.000 fps
Color space                              : YUV
Chroma subsampling                       : 4:2:0
Bit depth                                : 8 bits
Scan type                                : Progressive
Bits/(Pixel*Frame)                       : 0.043
Stream size                              : 1.52 GiB (83%)
Encoded date                             : UTC 2013-03-30 17:10:06
Tagged date                              : UTC 2013-03-30 20:49:39
Color primaries                          : BT.709
Transfer characteristics                 : BT.709
Matrix coefficients                      : BT.709

Audio
ID                                       : 2
Format                                   : AAC
Format/Info                              : Advanced Audio Codec
Format profile                           : LC
Codec ID                                 : 40
Duration                                 : 3h 0mn
Bit rate mode                            : Variable
Bit rate                                 : 245 Kbps
Maximum bit rate                         : 365 Kbps
Channel(s)                               : 2 channels
Channel positions                        : Front: L R
Sampling rate                            : 44.1 KHz
Compression mode                         : Lossy
Stream size                              : 317 MiB (17%)
Encoded date                             : UTC 2013-03-30 17:10:06
Tagged date                              : UTC 2013-03-30 17:21:16

Дополнительная информация:

Гарантированный результат:
утроение скорости и объёма запоминания любой информации
способность держать информацию в памяти неограниченно долго в исходном виде

Практическая ценность:

Пройдя курс Вы сможете:
усваивать и запоминать на любой срок в 2-3 раза больше информации с любого обучения — тренинга, семинара, лекции, презентации, книги и т.д.
с первого раза запоминать имена новых людей
быстро обрабатывать и держать в памяти большие объёмы информации, что позволит:
проще вести переговоры
уверенно выступать (читать лекции, вести презентации) без «бумажки» не сбиваясь с мысли
минимум в 3 раза быстрее обучаться, что позволит:
освоить новую профессию/специализацию за месяц
получить высшее образование за год
выучить иностранный язык за 3 месяца
сдать сессию на отлично за неделю

Численные характеристики результатов курса:

Вы сможете запомнить с абсолютной точностью на любой срок:
имена всех в аудитории 50-70 человек
основные тезисы выступления (с примерами, данными, статистикой) за 10-30 минут
все основные даты истории России (с правлением всех князей, царей, императоров и т.д) за 1,5 часа
200 значное число за 20 минут (20 номеров телефонов)
100 единиц любой информации за 10-20 минут
семестровый курс за один день!
Скриншоты:



Детали торрента:
Название:Николай Ягодкин | Kypc-интeнсив «Развитие памяти и внимания» (2013) PCRec [H.264]
Дата добавления:12 Янв 2017 16:38:43
Размер:9,67 GB
Раздают:26
Качают:0
Форум:Другие

All rights reserved © 2015-2018