TORRENTS43.XYZ

Скачать Верхом / Ride (2016) SATRip (сезон 1, серии 1-20 из 20) Nickelodeon


Верхом / Ride (2016) SATRip (сезон 1, серии 1-20 из 20)
Производство: США / Nickelodeon
Жанр: Боевик, приключения, семейный

Режиссер: Стефан Скайни, Тим Хоупвелл
Актеры: Стефан Скайни, Тим Хоупвелл
В ролях: Алана Боден, Сара Ботсфорд, Оливер Денч, Джонни Грэй, Натали Лисинска, Мануэль Пасифик, Рамит Раули, Майк Шара, Кендра Ли Тимминс, Мирса Дука ...

Описание: Кэтрин «Kит» Бриджес, переехавшая в Англию вместе со своим отцом, начинает обучение в престижной Конвингтонской Академии. Девочка искренне рада началу нового этапа в жизни, но вдруг узнаёт, что в школе обязательно придётся посещать уроки верховой езды, занятия которой вызывают у Кит страх. Однако дружба с самым непокорным и упрямым скакуном по кличке Ти-Кей меняет отношение героини и к учёбе в Академии, и к конному спорту. Справившись со страхом, Кит открывает перед собой дверь в абсолютно новый мир, где есть и друзья, и враги, где ждут приключения и первая влюблённость.


Возраст: 12+ (зрителям, достигшим 12 лет)

Продолжительность: ~ 00:22:00 серия
Качество видео: SATRip
Перевод: Дублированный
Субтитры: Отсутствуют

Видео: DivX 5, 720x400 (16:9), 25.000 fps, 1 485 Kbps (0.206 bit/pixel)
Аудио #1: AC-3, 48.0 KHz, 2 ch, 192 Kbps, CBR | Русский
Аудио #2: AC-3, 48.0 KHz, 2 ch, 192 Kbps, CBR | Английский

MediaInfo:


Общее
Полное имя : C:\NNM\Верхом\Verhom 2016 SATRip\1x01 - Прибытие (Arrival).avi
Формат : AVI
Формат/Информация : Audio Video Interleave
Размер файла : 301 Мбайт
Продолжительность : 22 м.
Общий поток : 1884 Кбит/сек
Название фильма : Верхом. Сезон 1 / Ride. Season 1 (2016)
Программа кодирования : VirtualDubMod 1.5.10.2 (build 2540/release)
Библиотека кодирования : VirtualDubMod build 2540/release
Авторское право : miha2154

Видео
Идентификатор : 0
Формат : MPEG-4 Visual
Профиль формата : Advanced Simple@L5
Параметр BVOP формата : 1
Параметр QPel формата : Нет
Параметр GMC формата : Без точки перехода
Параметр матрицы формата : Выборочная
Идентификатор кодека : DX50
Идентификатор кодека/Подсказка : DivX 5
Продолжительность : 22 м.
Битрейт : 1485 Кбит/сек
Ширина : 720 пикселей
Высота : 400 пикселей
Соотношение сторон : 16:9
Частота кадров : 25,000 кадров/сек
Цветовое пространство : YUV
Субдискретизация насыщенности : 4:2:0
Битовая глубина : 8 бит
Тип развёртки : Прогрессивная
Метод сжатия : С потерями
Бит/(Пиксели*Кадры) : 0.206
Размер потока : 238 Мбайт (79%)
Библиотека кодирования : XviD 65

Аудио #1
Идентификатор : 1
Формат : AC-3
Формат/Информация : Audio Coding 3
Расширение режима : CM (complete main)
Параметр Endianness формата : Big
Идентификатор кодека : 2000
Продолжительность : 22 м.
Вид битрейта : Постоянный
Битрейт : 192 Кбит/сек
Каналы : 2 канала
Расположение каналов : Front: L R
Частота : 48,0 КГц
Частота кадров : 31,250 кадров/сек (1536 spf)
Метод сжатия : С потерями
Размер потока : 30,7 Мбайт (10%)
Выравнивание : Разделение по промежуткам
Продолжительность промежутка : 40 мс. (1,00 видеокадр)
Время предзагрузки промежутка : 500 мс.
Заголовок : Профессиональный (полное дублирование)

Аудио #2
Идентификатор : 2
Формат : AC-3
Формат/Информация : Audio Coding 3
Расширение режима : CM (complete main)
Параметр Endianness формата : Big
Идентификатор кодека : 2000
Продолжительность : 22 м.
Вид битрейта : Постоянный
Битрейт : 192 Кбит/сек
Каналы : 2 канала
Расположение каналов : Front: L R
Частота : 48,0 КГц
Частота кадров : 31,250 кадров/сек (1536 spf)
Метод сжатия : С потерями
Размер потока : 30,7 Мбайт (10%)
Выравнивание : Разделение по промежуткам
Продолжительность промежутка : 40 мс. (1,00 видеокадр)
Время предзагрузки промежутка : 500 мс.
Заголовок : Английский
Скриншоты:
Все релизы фильма «Верхом» на Torrents43.xyz

Смотреть Online

http://moonwalk.cc/video/4c480992cac8f9ee/iframe
Детали торрента:
Название:Верхом / Ride (2016) SATRip (сезон 1, серии 1-20 из 20) Nickelodeon
Дата добавления:07 Дек 2016 15:48:27
Размер:5,88 GB
Раздают:
Качают:0
Форум:Архив Сериалов

All rights reserved © 2015-2018