TORRENTS43.XYZ

Скачать Dee Snider - We Are The Ones (2016) [FLAC|Lossless|image + .cue] <Hard Rock, Metal>


Dee Snider - We Are The Ones (2016)
Год: 2016
Жанр: Hard Rock, Metal
Страна: US
Издание: earMusic - 0211425EMU
Продолжительность: 00:36:34

Кодек: FLAC
Битрейт: Lossless
Тип рипа: image + .cue

Треклист:
01. We Are The Ones 02:51
02. Over Again 03:22
03. Close To You 03:48
04. Rule The World 03:24
05. We're Not Gonna Take It (2016 Acoustic Recording) 03:52
06. Crazy For Nothing 03:37
07. Believe 03:32
08. Head Like A Hole 04:57
09. Superhero 02:43
10. So What 04:23

Отчёт EAC:


Exact Audio Copy V1.1 from 23. June 2015

EAC extraction logfile from 5. November 2016, 18:04

Dee Snider / We Are The Ones

Used drive : PIONEER BD-RW BDR-209D Adapter: 0 ID: 5

Read mode : Secure
Utilize accurate stream : Yes
Defeat audio cache : Yes
Make use of C2 pointers : No

Read offset correction : 667
Overread into Lead-In and Lead-Out : No
Fill up missing offset samples with silence : Yes
Delete leading and trailing silent blocks : No
Null samples used in CRC calculations : Yes
Used interface : Installed external ASPI interface

Used output format : User Defined Encoder
Selected bitrate : 768 kBit/s
Quality : High
Add ID3 tag : No
Command line compressor : C:\Program Files (x86)\Exact Audio Copy\FLAC\FLAC.EXE
Additional command line options : -6 -V -T "ARTIST=%artist%" -T "TITLE=%title%" -T "ALBUM=%albumtitle%" -T "DATE=%year%" -T "TRACKNUMBER=%tracknr%" -T "GENRE=%genre%" -T "COMMENT=%comment%" -T "BAND=%albuminterpret%" -T "ALBUMARTIST=%albuminterpret%" -T "COMPOSER=%composer%" %haslyrics%--tag-from-file=LYRICS="%lyricsfile%"%haslyrics% -T "DISCNUMBER=%cdnumber%" -T "TOTALDISCS=%totalcds%" -T "TOTALTRACKS=%numtracks%" %hascover%--picture="%coverfile%"%hascover% %source% -o %dest%

TOC of the extracted CD

Track | Start | Length | Start sector | End sector
---------------------------------------------------------
1 | 0:00.00 | 2:51.69 | 0 | 12893
2 | 2:51.69 | 3:22.01 | 12894 | 28044
3 | 6:13.70 | 3:48.74 | 28045 | 45218
4 | 10:02.69 | 3:24.44 | 45219 | 60562
5 | 13:27.38 | 3:52.26 | 60563 | 77988
6 | 17:19.64 | 3:37.23 | 77989 | 94286
7 | 20:57.12 | 3:32.46 | 94287 | 110232
8 | 24:29.58 | 4:57.14 | 110233 | 132521
9 | 29:26.72 | 2:43.70 | 132522 | 144816
10 | 32:10.67 | 4:23.17 | 144817 | 164558

Range status and errors

Selected range

Filename E:\MUSIC\Dee Snider - We Are The Ones.wav

Peak level 100.0 %
Extraction speed 7.3 X
Range quality 100.0 %
Test CRC 470DF91C
Copy CRC 470DF91C
Copy OK

No errors occurred

AccurateRip summary

Track 1 not present in database
Track 2 not present in database
Track 3 not present in database
Track 4 not present in database
Track 5 not present in database
Track 6 not present in database
Track 7 not present in database
Track 8 not present in database
Track 9 not present in database
Track 10 not present in database

None of the tracks are present in the AccurateRip database

End of status report

==== Log checksum C2E377FE75A76C268FD74B5659C3CA4F08321195C07E7882750D45EBB02299DB ====

Cue Sheet (.cue):


REM GENRE Rock
REM DATE 2016-10-21
REM DISCID 8008920A
REM COMMENT "ExactAudioCopy v1.1"
REM LABEL "Ear Music"
REM LABELNUMBER 211425EMU
PERFORMER "Dee Snider"
TITLE "We Are The Ones"
FILE "Dee Snider - We Are The Ones.flac" WAVE
TRACK 01 AUDIO
TITLE "We Are The Ones"
PERFORMER "Dee Snider"
INDEX 01 00:00:00
TRACK 02 AUDIO
TITLE "Over Again"
PERFORMER "Dee Snider"
INDEX 01 02:51:69
TRACK 03 AUDIO
TITLE "Close To You"
PERFORMER "Dee Snider"
INDEX 01 06:13:70
TRACK 04 AUDIO
TITLE "Rule The World"
PERFORMER "Dee Snider"
INDEX 01 10:02:69
TRACK 05 AUDIO
TITLE "We're Not Gonna Take It (2016 Acoustic Recording)"
PERFORMER "Dee Snider"
INDEX 01 13:27:38
TRACK 06 AUDIO
TITLE "Crazy For Nothing"
PERFORMER "Dee Snider"
INDEX 01 17:19:64
TRACK 07 AUDIO
TITLE Believe
PERFORMER "Dee Snider"
INDEX 01 20:57:12
TRACK 08 AUDIO
TITLE "Head Like A Hole"
PERFORMER "Dee Snider"
INDEX 01 24:29:58
TRACK 09 AUDIO
TITLE Superhero
PERFORMER "Dee Snider"
INDEX 01 29:26:72
TRACK 10 AUDIO
TITLE "So What"
PERFORMER "Dee Snider"
INDEX 01 32:10:67

Отчёт auCDtect Task manager:


-----------------------

DON'T MODIFY THIS FILE

-----------------------

PERFORMER: auCDtect Task Manager, ver. 1.6.0 RC1 build 1.6.0.1
Copyright (c) 2008-2010 y-soft. All rights reserved
http://y-soft.org

ANALYZER: auCDtect: CD records authenticity detector, version 0.8.2
Copyright (c) 2004 Oleg Berngardt. All rights reserved.
Copyright (c) 2004 Alexander Djourik. All rights reserved.

FILE: Dee Snider - We Are The Ones.flac
Size: 274709319 Hash: 60CC7E3B0C1A6F37CD24A80F6019FF1D Accuracy: -m0
Conclusion: MPEG 91%
Signature: 5465E5D50961B74EF6DA91129001B4304F9B0A4B

Спектрограмма:



YouTube
Детали торрента:
Название:Dee Snider - We Are The Ones (2016) [FLAC|Lossless|image + .cue] <Hard Rock, Metal>
Дата добавления:07 Ноя 2016 17:21:00
Размер:266 MB
Раздают:
Качают:0
Форум:Metal (Lossless)

All rights reserved © 2015-2018