TORRENTS43.XYZ

Скачать Однажды в России (2016.10.16) WEB-DL [H.264/720p-LQ] (сезон 4, выпуск 8)


Однажды в России (2016.10.16) WEB-DL [H.264/720p-LQ] (сезон 4, выпуск 8)
Телекомпания: ТНТ
Производство: Россия
Жанр: Юмористическое тв-шоу

В ролях: Азамат Мусагалиев, Игорь Ласточкин, Ирина Чеснокова, Тимур Тания, Ольга Картункова, Александр Пташенчук, Максим Киселёв, Денис Дорохов, Заур Байцаев, Давид Цаллаев и др.

Описание:
Шоу «Однажды в России», как и многие проекты ТНТ, имеет оригинальный формат. Это будет «реальный театр». То есть заранее написанный сценарий герой шоу «Однажды в России» постарается воплотить в повседневной жизни. А это совсем не так просто, как может показаться сначала, но зато очень смешно. Передача построена на чередовании скетчей. Создатели «Однажды в России» – Семен Слепаков и Слава Дусмухаметов, за плечами которых – продюсирование сериала «Интерны», «Наша RUSSIA», и других нашумевших фильмов и передач. В роли ведущего выступит Вадим Галыгин.
Россия - богатейшая страна, в которой много нефти, газа и проблем. Новое шоу ТНТ "Однажды в России" не решает ни одной из них. Оно над ними смеется.

Релиз от: qqss44
Продолжительность: 00:47:49
Качество видео: WEB-DL
Субтитры: Отсутствуют

Видео: AVC, 1280x720 (16:9), 25.000 fps, 3 520 Kbps (0.153 bit/pixel)
Аудио: AC-3, 48.0 KHz, 2 ch, 192 Kbps, CBR

Mediainfo:

Код: выделить все
 Общее
Уникальный идентификатор                 : 207639700745310781287023054283668947721 (0x9C35F3A4A2E18773B639A13DA9DF8309)
Полное имя                               : D:\[1]\Однажды в России\Однажды в России. Сезон 4. Выпуск 08 (2016.10.16)_720.mkv
Формат                                   : Matroska
Версия формата                           : Version 2
Размер файла                             : 1,27 Гбайт
Продолжительность                        : 47 м.
Общий поток                              : 3788 Кбит/сек
Дата кодирования                         : UTC 2016-10-16 20:25:14
Программа кодирования                    : mkvmerge v7.9.0 ('Birds') 64bit
Библиотека кодирования                   : libebml v1.3.1 + libmatroska v1.4.2
DURATION                                 : 00:47:49.088000000
NUMBER_OF_FRAMES                         : 89659
NUMBER_OF_BYTES                          : 68858112
_STATISTICS_WRITING_APP                  : mkvmerge v7.9.0 ('Birds') 64bit
_STATISTICS_WRITING_DATE_UTC             : 2016-10-16 20:25:14
_STATISTICS_TAGS                         : BPS DURATION NUMBER_OF_FRAMES NUMBER_OF_BYTES

Видео
Идентификатор                            : 1
Формат                                   : AVC
Формат/Информация                        : Advanced Video Codec
Профиль формата                          : High@L3.1
Параметр CABAC формата                   : Да
Параметр ReFrames формата                : 1 кадр
Параметр GOP формата                     : M=1, N=12
Идентификатор кодека                     : V_MPEG4/ISO/AVC
Продолжительность                        : 47 м.
Битрейт                                  : 3520 Кбит/сек
Ширина                                   : 1280 пикселей
Высота                                   : 720 пикселей
Соотношение сторон                       : 16:9
Режим частоты кадров                     : Постоянный
Частота кадров                           : 25,000 кадров/сек
Стандарт вещания                         : Component
Цветовое пространство                    : YUV
Субдискретизация насыщенности            : 4:2:0
Битовая глубина                          : 8 бит
Тип развёртки                            : Прогрессивная
Бит/(Пиксели*Кадры)                      : 0.153
Размер потока                            : 1,18 Гбайт (93%)
Default                                  : Да
Forced                                   : Нет
Цветовой диапазон                        : Limited

Аудио
Идентификатор                            : 2
Формат                                   : AC-3
Формат/Информация                        : Audio Coding 3
Расширение режима                        : CM (complete main)
Параметр Endianness формата              : Big
Идентификатор кодека                     : A_AC3
Продолжительность                        : 47 м.
Вид битрейта                             : Постоянный
Битрейт                                  : 192 Кбит/сек
Каналы                                   : 2 канала
Расположение каналов                     : Front: L R
Частота                                  : 48,0 КГц
Битовая глубина                          : 16 бит
Метод сжатия                             : С потерями
Размер потока                            : 65,7 Мбайт (5%)
Default                                  : Да
Forced                                   : Нет
 
Скриншоты:



Все одноименные релизы в Клубе

Смотреть Online

http://moonwalk.cc/serial/240e27565b6cc82fd4b8974afd645e22/iframe
Детали торрента:
Название:Однажды в России (2016.10.16) WEB-DL [H.264/720p-LQ] (сезон 4, выпуск 8)
Дата добавления:17 Окт 2016 07:13:47
Размер:1,27 GB
Раздают:1
Качают:0
Форум:ПостКВН

All rights reserved © 2015-2018