TORRENTS43.XYZ

Скачать Капитан Блад / Fortunes of Captain Blood (1950) DVDRip [H.264]


Капитан Блад / Fortunes of Captain Blood (1950) DVDRip [H.264]
Производство: США / Columbia Pictures Corporation
Жанр: Приключения

Режиссер: Гордон Дуглас
Актеры: Луис Хейуорд, Патриция Медина, Джордж Макреди, Альфонсо Бедойа, Дона Дрэйк, Лоуелл Гилмор, Вилтон Графф, Курт Боис, Ламсден Хейр, Билли Беван

Описание:
Великолепный трехмачтовый двухпалубный фрегат «Сан-Филипе» и его сплоченная команда под командованием самого известного пирата Карибского Моря Питера Блада вновь спешит на всех парусах, подняв черный флаг, навстречу приключениям. Этот фильм снят по заключительной книге трилогии Рафаэля Сабатини о приключениях Капитана Блада. Как и раньше героя ждут нешуточные испытания, связанные со смертельной опасностью. Однако благодаря личной находчивости и решительности Питеру Бладу всякий раз удается оставить в дураках своих противников и в тоже время помочь хорошим людям — вызволить из плена английского повстанца, вернуть в семью девушку бежавшую с бесчестным мошенником…


Возраст: 12+ (зрителям, достигшим 12 лет)

Продолжительность: 01:22:12
Качество видео: DVDRip
Перевод: Многоголосый закадровый

Видео: AVC/H.264, 680x504, ~2185 Kbps, 25.000 fps
Аудио: AC3, 2 ch, 192 Kbps

Mediainfo:

Код: выделить все

Общее
Уникальный идентификатор                 : 193317383142641086118634108095357589622 (0x916F92DDC6163327A2F83DEC7FD51876)
Полное имя                               : E:\Мои раздачи\Одиссея капитана Блада - 03 ''Капитан Блад'' (Captain Blood - 03 ''Fortunes Of Captain Blood'').mkv
Формат                                   : Matroska
Версия формата                           : Version 2
Размер файла                             : 1,37 Гбайт
Продолжительность                        : 1 ч. 22 м.
Общий поток                              : 2379 Кбит/сек
Дата кодирования                         : UTC 2016-09-30 23:44:16
Программа кодирования                    : mkvmerge v3.4.0 ('Rapunzel') сборка от May 15 2010 09:38:20
Библиотека кодирования                   : libebml v0.8.0 + libmatroska v0.9.0
Attachments                              : Лог кодирования.log

Видео
Идентификатор                            : 1
Формат                                   : AVC
Формат/Информация                        : Advanced Video Codec
Профиль формата                          : High@L4.1
Параметр CABAC формата                   : Да
Параметр ReFrames формата                : 11 кадров
Идентификатор кодека                     : V_MPEG4/ISO/AVC
Продолжительность                        : 1 ч. 22 м.
Битрейт                                  : 2185 Кбит/сек
Ширина                                   : 680 пикселей
Высота                                   : 504 пикселя
Соотношение сторон                       : 4:3
Режим частоты кадров                     : Постоянный
Частота кадров                           : 25,000 кадров/сек
Цветовое пространство                    : YUV
Субдискретизация насыщенности            : 4:2:0
Битовая глубина                          : 8 бит
Тип развёртки                            : Прогрессивная
Бит/(Пиксели*Кадры)                      : 0.255
Размер потока                            : 1,23 Гбайт (90%)
Заголовок                                : Одиссея капитана Блада - 03 ''Капитан Блад'' (Captain Blood - 03 ''Fortunes On Captain Blood'')
Библиотека кодирования                   : x264 core 148 r2638 7599210
Настройки программы                      : cabac=1 / ref=11 / deblock=1:-1:-1 / analyse=0x3:0x133 / me=umh / subme=11 / psy=1 / psy_rd=1.00:0.15 / mixed_ref=1 / me_range=64 / chroma_me=1 / trellis=2 / 8x8dct=1 / cqm=0 / deadzone=21,11 / fast_pskip=0 / chroma_qp_offset=-3 / threads=6 / lookahead_threads=1 / sliced_threads=0 / nr=0 / decimate=0 / interlaced=0 / bluray_compat=0 / constrained_intra=0 / bframes=16 / b_pyramid=2 / b_adapt=2 / b_bias=0 / direct=3 / weightb=1 / open_gop=0 / weightp=2 / keyint=250 / keyint_min=25 / scenecut=40 / intra_refresh=0 / rc_lookahead=60 / rc=2pass / mbtree=0 / bitrate=2185 / ratetol=1.0 / qcomp=0.60 / qpmin=0 / qpmax=69 / qpstep=4 / cplxblur=20.0 / qblur=0.5 / vbv_maxrate=50000 / vbv_bufsize=62500 / nal_hrd=none / filler=0 / ip_ratio=1.40 / pb_ratio=1.30 / aq=1:1.00
Язык                                     : English
Default                                  : Да
Forced                                   : Нет

Аудио
Идентификатор                            : 2
Формат                                   : AC-3
Формат/Информация                        : Audio Coding 3
Расширение режима                        : CM (complete main)
Параметр Endianness формата              : Big
Идентификатор кодека                     : A_AC3
Продолжительность                        : 1 ч. 22 м.
Вид битрейта                             : Постоянный
Битрейт                                  : 192 Кбит/сек
Каналы                                   : 2 канала
Расположение каналов                     : Front: L R
Частота                                  : 48,0 КГц
Частота кадров                           : 31,250 кадров/сек (1536 spf)
Метод сжатия                             : С потерями
Размер потока                            : 113 Мбайт (8%)
Заголовок                                : Многоголосый ''Неизвестно'' (AC-3, Постоянный, 192 Кбит/сек, 2 канала, 48,0 КГц)
Язык                                     : Russian
Default                                  : Да
Forced                                   : Нет

Меню
00:00:00.000                             : en:Chapter 01
00:09:51.400                             : en:Chapter 02
00:20:59.520                             : en:Chapter 03
00:30:33.480                             : en:Chapter 04
00:39:35.360                             : en:Chapter 05
00:50:44.120                             : en:Chapter 06
01:00:17.120                             : en:Chapter 07
01:11:07.920                             : en:Chapter 08
Скриншоты:


Все одноименные релизы в Клубе
Детали торрента:
Название:Капитан Блад / Fortunes of Captain Blood (1950) DVDRip [H.264]
Дата добавления:02 Окт 2016 07:34:11
Размер:1,37 GB
Раздают:2
Качают:0
Форум:Зарубежная Классика (HD*Rip/LQ, DVDRip, SATRip, VHSRip)

All rights reserved © 2015-2018