TORRENTS43.XYZ

Скачать Discovery. Махинаторы (Автодилеры) / Wheeler Dealers (2016) HDTV [H.264/1080p-LQ] (сезон 13, серии 1-18 из 18)


Discovery. Махинаторы (Автодилеры) / Wheeler Dealers (2016) HDTV [H.264/1080p-LQ] (Сезон 13, серии 1-18 из 18)
Производство: Великобритания, AttaBoy for Discovery Channel
Жанр: Документальный, автомобилестроение

Режиссер: Уоррен Грин, Ричард Хили, Хенрик Ниеминен
Участники: Майк Брюэр, Эд Хина, Paul Brackley

Описание:
Сюжет программы — покупка, реставрирование и перепродажа с выгодой, классического автомобиля (обычно авто конца 70-х, 80-х годов). Бюджет всегда ограничен, к примеру, в первом сезоне он составлял 1000 , во 2-м — 2000 , в 3-м — 3000 . Иногда Майк добивается разрешения продюсера на увеличение суммы для покупки эксклюзивных и редких авто.
Майк покупает машину, передаёт её механику Эду на починку и потом продаёт её новому владельцу, а как это у них получится, смотрите сами...



Продолжительность: ~00:43:00 серия
Качество видео: HDTV
Перевод: Одноголосый закадровый, профессиональный

Видео: AVC/H.264, 1920x1080 (16:9), ~7000 Kbps
Аудио: MP2, 2 ch, 384 Kbps

MediaInfo

Код: выделить все
Общее
Идентификатор                            : 1 (0x1)
Полное имя                               : S13E01 Махинаторы .ts
Формат                                   : MPEG-TS
Размер файла                             : 2,35 Гбайт
Продолжительность                        : 43 м. 58 с.
Режим общего битрейта                    : Переменный
Общий поток                              : 7656 Кбит/сек

Видео
Идентификатор                            : 224 (0xE0)
Идентификатор меню                       : 1 (0x1)
Формат                                   : AVC
Формат/Информация                        : Advanced Video Codec
Профиль формата                          : High@L4.1
Параметр CABAC формата                   : Да
Параметр ReFrames формата                : 3 кадра
Идентификатор кодека                     : 27
Продолжительность                        : 43 м. 58 с.
Вид битрейта                             : Постоянный
Битрейт                                  : 7000 Кбит/сек
Ширина                                   : 1920 пикселей
Высота                                   : 1080 пикселей
Соотношение сторон                       : 16:9
Частота кадров                           : 30,000 кадров/сек
Стандарт вещания                         : NTSC
Цветовое пространство                    : YUV
Субдискретизация насыщенности            : 4:2:0
Битовая глубина                          : 8 бит
Тип развёртки                            : Прогрессивная
Бит/(Пиксели*Кадры)                      : 0.113
Размер потока                            : 2,12 Гбайт (90%)
Цветовой диапазон                        : Limited
Основные цвета                           : BT.709
Характеристики трансфера                 : BT.709
Коэффициенты матрицы                     : BT.709

Аудио
Идентификатор                            : 4097 (0x1001)
Идентификатор меню                       : 1 (0x1)
Формат                                   : MPEG Audio
Версия формата                           : Version 1
Профиль формата                          : Layer 2
Идентификатор кодека                     : 3
Продолжительность                        : 43 м. 58 с.
Вид битрейта                             : Постоянный
Битрейт                                  : 384 Кбит/сек
Каналы                                   : 2 канала
Частота                                  : 48,0 КГц
Метод сжатия                             : С потерями
Задержка видео                           : 13 мс.
Размер потока                            : 121 Мбайт (5%)
Язык                                     : English

Список серий

01. Mercedes-Benz 560SL. 1987
02. Volvo PV544. 1963
03. Honda CVCC. 1977
04. Chevy LUV. 1980
05. Ford Mustang GT. 1988
06. Chevy Corvair. 1963
07. Land Rover IIA. 1965
08. Chevy Corvette. 1968
09. Best Of, Part 1. Лучшие моменты, часть 1
10. Ford Bronco. 1970
11. Mercedes 500 SEC. 1983
12. Porsche 912E. 1976
13. Camaro RS. 1973
14. Sunbeam Alpine. 1963
15. Humvee. 1992
16. Maserati Bi-Turbo. 1985
17. Cadillac V8. 1916
18. Best of Take 2. Лучшие моменты 2
Скриншоты:


«Махинаторы» на NoName Club

Смотреть Online

http://moonwalk.cc/serial/09c61e0bc1950da790c1d977e2ba06ed/iframe
Детали торрента:
Название:Discovery. Махинаторы (Автодилеры) / Wheeler Dealers (2016) HDTV [H.264/1080p-LQ] (сезон 13, серии 1-18 из 18)
Дата добавления:10 Апр 2017 20:46:33
Размер:42,2 GB
Раздают:5
Качают:0
Форум:За рулем

All rights reserved © 2015-2018