TORRENTS43.XYZ

Скачать Pat Metheny - Secret Story (1992) [FLAC|Lossless|image + .cue] <Post Bop, Contemporary Jazz>


Pat Metheny - Secret Story (1992)
Год: 1992
Жанр: Post Bop, Contemporary Jazz
Издание: Geffen Records – GED 24468
Продолжительность: 01:16:26
Источник (релизер): krokradio

Кодек: FLAC
Битрейт: Lossless
Тип рипа: image + .cue

Треклист:
01. Above The Treetops
02. Facing West
03. Cathedral In A Suitcase
04. Finding And Believing
05. The Longest Summer
06. Sunlight
07. Rain River
08. Always And Forever
09. See The World
10. As A Flower Blossoms (I Am Running To You)
11. Antonia
12. The Truth Will Always Be
13. Tell Her You Saw Me
14. Not To Be Forgotten (Our Final Hour)

Отчёт EAC:

Код:

Exact Audio Copy V1.2 from 12. August 2016

EAC extraction logfile from 22. August 2016, 16:35

Pat Metheny / Secret Story

Used drive  : HL-DT-STDVDRAM GH20NS10   Adapter: 1  ID: 0

Read mode               : Secure
Utilize accurate stream : Yes
Defeat audio cache      : Yes
Make use of C2 pointers : No

Read offset correction                      : 667
Overread into Lead-In and Lead-Out          : No
Fill up missing offset samples with silence : Yes
Delete leading and trailing silent blocks   : No
Null samples used in CRC calculations       : Yes
Used interface                              : Native Win32 interface for Win NT & 2000

Used output format              : User Defined Encoder
Selected bitrate                : 768 kBit/s
Quality                         : High
Add ID3 tag                     : No
Command line compressor         : C:\Program Files (x86)\Exact Audio Copy\Flac\flac.exe
Additional command line options : -8 -V -T "TITLE=%title%" -T "ARTIST=%artist%" -T "ALBUMARTIST=%albumartist%" -T "ALBUM=%albumtitle%" -T "DATE=%year%" -T "TRACKNUMBER=%tracknr%" -T "TRACKTOTAL=%numtracks%" -T "GENRE=%genre%" -T "COMMENT=%comment%" -T "PERFORMER=%albuminterpret%" -T "COMPOSER=%composer%" %source% -o %dest%

TOC of the extracted CD

     Track |   Start  |  Length  | Start sector | End sector
    ---------------------------------------------------------
        1  |  0:00.33 |  2:44.12 |        33    |    12344
        2  |  2:44.45 |  6:05.48 |     12345    |    39767
        3  |  8:50.18 |  4:52.27 |     39768    |    61694
        4  | 13:42.45 | 10:00.15 |     61695    |   106709
        5  | 23:42.60 |  6:34.15 |    106710    |   136274
        6  | 30:17.00 |  3:53.03 |    136275    |   153752
        7  | 34:10.03 |  7:09.32 |    153753    |   185959
        8  | 41:19.35 |  5:26.38 |    185960    |   210447
        9  | 46:45.73 |  4:48.20 |    210448    |   232067
       10  | 51:34.18 |  1:53.67 |    232068    |   240609
       11  | 53:28.10 |  6:11.28 |    240610    |   268462
       12  | 59:39.38 |  9:15.50 |    268463    |   310137
       13  | 68:55.13 |  5:11.32 |    310138    |   333494
       14  | 74:06.45 |  2:20.13 |    333495    |   344007

Range status and errors

Selected range

     Filename J:\Для раздачи\Рипы\Pat Metheny - Secret Story\Pat Metheny - Secret Story.wav

     Peak level 99.8 %
     Extraction speed 8.0 X
     Range quality 100.0 %
     Test CRC D622B7E1
     Copy CRC D622B7E1
     Copy OK

No errors occurred

AccurateRip summary

Track  1  accurately ripped (confidence 154)  [FECC9BD0]  (AR v2)
Track  2  accurately ripped (confidence 156)  [68A2C594]  (AR v2)
Track  3  accurately ripped (confidence 156)  [EAC5CF0E]  (AR v2)
Track  4  accurately ripped (confidence 154)  [071AE787]  (AR v2)
Track  5  accurately ripped (confidence 157)  [E18786D9]  (AR v2)
Track  6  accurately ripped (confidence 156)  [494BE584]  (AR v2)
Track  7  accurately ripped (confidence 155)  [DCEC1172]  (AR v2)
Track  8  accurately ripped (confidence 157)  [DF8E869D]  (AR v2)
Track  9  accurately ripped (confidence 155)  [D2408D1D]  (AR v2)
Track 10  accurately ripped (confidence 155)  [7B837D6A]  (AR v2)
Track 11  accurately ripped (confidence 152)  [BAF7076A]  (AR v2)
Track 12  accurately ripped (confidence 152)  [F1519911]  (AR v2)
Track 13  accurately ripped (confidence 154)  [02192B6B]  (AR v2)
Track 14  accurately ripped (confidence 151)  [9F036D68]  (AR v2)

All tracks accurately ripped

End of status report

---- CUETools DB Plugin V2.1.6

[CTDB TOCID: lqUaZzPkvL4R_.SiXNw87W9THas-] found
Submit result: lqUaZzPkvL4R_.SiXNw87W9THas- has been confirmed
Track | CTDB Status
  1   | (185/187) Accurately ripped
  2   | (183/187) Accurately ripped
  3   | (183/187) Accurately ripped
  4   | (186/187) Accurately ripped
  5   | (186/187) Accurately ripped
  6   | (184/187) Accurately ripped
  7   | (180/187) Accurately ripped
  8   | (182/187) Accurately ripped
  9   | (182/187) Accurately ripped
 10   | (184/187) Accurately ripped
 11   | (181/187) Accurately ripped
 12   | (178/187) Accurately ripped
 13   | (182/187) Accurately ripped
 14   | (181/187) Accurately ripped

==== Log checksum B86C23B60F835EAFC6AE68AD0BA5D95648C6D395C1FF09DF49BA0FFBCD40B608 ====

Cue Sheet (.cue):

Код:

REM GENRE Jazz
REM DATE 1992
REM DISCID BA11EA0E
REM COMMENT "ExactAudioCopy v1.2"
PERFORMER "Pat Metheny"
TITLE "Secret Story"
REM COMPOSER ""
FILE "Pat Metheny - Secret Story.flac" WAVE
  TRACK 01 AUDIO
    TITLE "Above the Treetops"
    PERFORMER "Pat Metheny"
    REM COMPOSER ""
    INDEX 00 00:00:00
    INDEX 01 00:00:33
  TRACK 02 AUDIO
    TITLE "Facing West"
    PERFORMER "Pat Metheny"
    REM COMPOSER ""
    INDEX 01 02:44:45
  TRACK 03 AUDIO
    TITLE "Cathedral in a Suitcase"
    PERFORMER "Pat Metheny"
    REM COMPOSER ""
    INDEX 01 08:50:18
  TRACK 04 AUDIO
    TITLE "Finding and Believing"
    PERFORMER "Pat Metheny"
    REM COMPOSER ""
    INDEX 01 13:42:45
  TRACK 05 AUDIO
    TITLE "The Longest Summer"
    PERFORMER "Pat Metheny"
    REM COMPOSER ""
    INDEX 00 23:40:70
    INDEX 01 23:42:60
  TRACK 06 AUDIO
    TITLE "Sunlight"
    PERFORMER "Pat Metheny"
    REM COMPOSER ""
    INDEX 00 30:14:48
    INDEX 01 30:17:00
  TRACK 07 AUDIO
    TITLE "Rain River"
    PERFORMER "Pat Metheny"
    REM COMPOSER ""
    INDEX 01 34:10:03
  TRACK 08 AUDIO
    TITLE "Always and Forever"
    PERFORMER "Pat Metheny"
    REM COMPOSER ""
    INDEX 01 41:19:35
  TRACK 09 AUDIO
    TITLE "See the World"
    PERFORMER "Pat Metheny"
    REM COMPOSER ""
    INDEX 00 46:44:23
    INDEX 01 46:45:73
  TRACK 10 AUDIO
    TITLE "As a Flower Blossoms (I am Running to You)"
    PERFORMER "Pat Metheny"
    REM COMPOSER ""
    INDEX 01 51:34:18
  TRACK 11 AUDIO
    TITLE "Antonia"
    PERFORMER "Pat Metheny"
    REM COMPOSER ""
    INDEX 01 53:28:10
  TRACK 12 AUDIO
    TITLE "The Truth Will Always Be"
    PERFORMER "Pat Metheny"
    REM COMPOSER ""
    INDEX 00 59:38:73
    INDEX 01 59:39:38
  TRACK 13 AUDIO
    TITLE "Tell Her You Saw Me"
    PERFORMER "Pat Metheny"
    REM COMPOSER ""
    INDEX 00 68:49:28
    INDEX 01 68:55:13
  TRACK 14 AUDIO
    TITLE "Not To Be Forgotten (Our Final Hour)"
    PERFORMER "Pat Metheny"
    REM COMPOSER ""
    INDEX 00 74:01:35
    INDEX 01 74:06:45

Отчёт auCDtect Task manager:

Код:

-----------------------

DON'T MODIFY THIS FILE

-----------------------

PERFORMER: auCDtect Task Manager, ver. 1.6.0 RC1 build 1.6.0.1
Copyright (c) 2008-2010 y-soft. All rights reserved
http://y-soft.org

ANALYZER: auCDtect: CD records authenticity detector, version 0.8.2
Copyright (c) 2004 Oleg Berngardt. All rights reserved.
Copyright (c) 2004 Alexander Djourik. All rights reserved.

FILE: Pat Metheny - Secret Story.flac
  Size: 456262739 Hash: 18C9EDF7DA406FF6F02B216C36E00822 Accuracy: -m0
  Conclusion: CDDA 100%
  Signature: 5008CEE875739947CB309588F0DEB9280B1573C9

Спектрограмма:



YouTube




Поглощение/вытеснение
Только с согласия релизера

gvm55
Детали торрента:
Название:Pat Metheny - Secret Story (1992) [FLAC|Lossless|image + .cue] <Post Bop, Contemporary Jazz>
Дата добавления:22 Авг 2016 16:42:56
Размер:435 MB
Раздают:2
Качают:0
Форум:Jazz (Lossless)

All rights reserved © 2015-2018