TORRENTS43.XYZ

Скачать Братья из Гримсби / Grimsby (2016) BDRip [576p] iPad


Братья из Гримсби / Grimsby (2016) BDRip [576p] iPad
«One secret agent. One complete idiot»

Год выпуска: 2016
Производство: Великобритания, Австралия, США
Жанр: Боевик, комедия
Продолжительность: 01:23:12

Перевод: Дублированный (Лицензия)
Субтитры: Русские форсированные, Русские, Английские
Режиссер: Луи Летерье
Актеры: Саша Барон Коэн, Марк Стронг, Ребел Уилсон, Пенелопа Крус, Айла Фишер, Габури Сидибе, Аннабелль Уоллис, Иэн МакШейн, Дэвид Хэрвуд, Рикки Томлинсон

Мировая премьера: 24 февраля 2016



Описание: Сверхсекретная операция, которую выполняет образцовый спецагент, с треском провалена из-за некстати свалившегося на его голову неадекватного брата — оголтелого футбольного фаната и полного беспредельщика. Теперь герою предстоит спасти свою жизнь и вдобавок планету от нависшей над ней угрозы — практически невыполнимая задача в тандеме с вновь приобретенным родственником.
Качество: BDRip
Контейнер: M4V
Видео: H.264, 1024x432, 2.40:1, 2 200 Kbps, 23.976 fps

Аудио 1: Русский/Дублированный (Лицензия), AAC / 2.0 / 126 Kbps / 48.0 KHz
Аудио 2: Английский/Оригинальная дорожка , AAC / 2.0 / 126 Kbps / 48.0 KHz

iTunes Meta Tags

Код:

Sort Name: Brothers Grimsby
XID: Apple:vendor_id:2016-817481
contentID: 1079989968
Screenwriters: Саша Барон Коэн, Фил Джонстон, Питер Бейнхэм
Producers: Саша Барон Коэн, Найра Парк, Питер Бейнхэм
Director: Луи Летерье
Cast: Саша Барон Коэн, Марк Стронг, Ребел Уилсон, Пенелопа Крус, Айла Фишер, Габури Сидибе, Аннабелль Уоллис, Иэн МакШейн, Дэвид Хэрвуд, Рикки Томлинсон, Василий Дахненко, Александр Коврижных, Алена Фалалеева, Людмила Шувалова, Ирина Киреева
Studio: Columbia Pictures
Rating: 5
Long Description: Сверхсекретная операция, которую выполняет образцовый спецагент, с треском провалена из-за некстати свалившегося на его голову неадекватного брата - оголтелого футбольного фаната и полного беспредельщика. Теперь герою предстоит спасти свою жизнь и вдобавок планету от нависшей над ней угрозы - практически невыполнимая задача в тандеме с вновь приобретенным родственником.
Description: Сверхсекретная операция, которую выполняет образцовый спецагент, с треском провалена из-за некстати свалившегося на его голову неадекватного брата - оголтелого футбольного фаната и полного беспредельщика. Теперь герою предстоит спасти свою жизнь и вдобавок планету от нависшей над ней угрозы - практически невыполнимая задача в тандеме с вновь приобретенным родственником.
Release Date: 2016-02-24T08:00:00Z
Genre: Comedy
Artist: Louis Leterrier
Name: The Brothers Grimsby

MediaInfo

Код:

General
Complete name : /Users/imac/HandBrake/Grimsby.(576p).(pk).m4v
Format : MPEG-4
Codec ID : M4V
File size : 1.43 GiB
Duration : 1h 23mn
Overall bit rate mode : Variable
Overall bit rate : 2 461 Kbps
Movie name : The Brothers Grimsby
Performer : Louis Leterrier
Director : Луи Летерье
Actor : Саша Барон Коэн / Марк Стронг / Ребел Уилсон / Пенелопа Крус / Айла Фишер / Габури Сидибе / Аннабелль Уоллис / Иэн МакШейн / Дэвид Хэрвуд / Рикки Томлинсон / Василий Дахненко / Александр Коврижных / Алена Фалалеева / Людмила Шувалова / Ирина Киреева
Screenplay by : Саша Барон Коэн / Фил Джонстон / Питер Бейнхэм
Producer : Саша Барон Коэн / Найра Парк / Питер Бейнхэм
Production studio : Columbia Pictures
Genre : Comedy
ContentType : Short Film
Description : Сверхсекретная операция, которую выполняет образцовый спецагент, с треском провалена из-за некстати свалившегося на его голову неадекватного брата - оголтелого футбольного фаната и полного беспредельщика. Теперь герою предстоит спасти свою жизнь и вдобавок планету от нависшей над ней угрозы - практически невыполнимая задача в тандеме с вновь приобретенным родственником.
Recorded date : UTC 2016-02-24 08:00:00
Encoded date : UTC 2016-07-25 22:43:27
Tagged date : UTC 2016-07-25 22:44:27
Cover : Yes
Rating : None
Title/Sort : Brothers Grimsby
LongDescription : Сверхсекретная операция, которую выполняет образцовый спецагент, с треском провалена из-за некстати свалившегося на его голову неадекватного брата - оголтелого футбольного фаната и полного беспредельщика. Теперь герою предстоит спасти свою жизнь и вдобавок планету от нависшей над ней угрозы - практически невыполнимая задача в тандеме с вновь приобретенным родственником.
AppleStoreCatalogID : 1079989968
Vendor : Apple:vendor_id:2016-817481
ContentRating : mpaa|R|400|

Video #1
ID : 1
Format : AVC
Format/Info : Advanced Video Codec
Format profile : High@L3.1
Format settings, CABAC : Yes
Format settings, ReFrames : 9 frames
Codec ID : avc1
Codec ID/Info : Advanced Video Coding
Duration : 1h 23mn
Source duration : 1h 23mn
Bit rate : 2 200 Kbps
Width : 1 024 pixels
Height : 432 pixels
Display aspect ratio : 2.40:1
Frame rate mode : Variable
Frame rate : 23.976 fps
Minimum frame rate : 23.810 fps
Maximum frame rate : 24.246 fps
Color space : YUV
Chroma subsampling : 4:2:0
Bit depth : 8 bits
Scan type : Progressive
Bits/(Pixel*Frame) : 0.207
Stream size : 1.28 GiB (89%)
Source stream size : 1.28 GiB (89%)
Title : Main Program
Writing library : x264 core 142 r2479 dd79a61
Encoding settings : cabac=1 / ref=9 / deblock=1:0:0 / analyse=0x3:0x113 / me=umh / subme=9 / psy=1 / psy_rd=1.00:0.00 / mixed_ref=1 / me_range=32 / chroma_me=1 / trellis=1 / 8x8dct=1 / cqm=0 / deadzone=21,11 / fast_pskip=1 / chroma_qp_offset=-2 / threads=36 / lookahead_threads=3 / sliced_threads=0 / nr=0 / decimate=1 / interlaced=0 / bluray_compat=0 / constrained_intra=0 / bframes=6 / b_pyramid=2 / b_adapt=2 / b_bias=0 / direct=1 / weightb=1 / open_gop=0 / weightp=2 / keyint=240 / keyint_min=24 / scenecut=40 / intra_refresh=0 / rc_lookahead=40 / rc=2pass / mbtree=1 / bitrate=2200 / ratetol=1.0 / qcomp=0.60 / qpmin=0 / qpmax=69 / qpstep=4 / cplxblur=20.0 / qblur=0.5 / ip_ratio=1.40 / aq=1:1.00
Language : English
Encoded date : UTC 2016-07-25 22:43:27
Tagged date : UTC 2016-07-25 22:43:30
Color range : Limited
Color primaries : BT.709
Transfer characteristics : BT.709
Matrix coefficients : BT.709

Video #2
ID : 8
Format : JPEG
Codec ID : jpeg
Duration : 1h 23mn
Bit rate mode : Variable
Bit rate : 1 226 bps
Width : 640 pixels
Height : 270 pixels
Display aspect ratio : 2.40:1
Frame rate mode : Variable
Frame rate : 0.003 fps
Minimum frame rate : 0.002 fps
Maximum frame rate : 0.004 fps
Color space : YUV
Chroma subsampling : 4:2:0
Bit depth : 8 bits
Compression mode : Lossy
Bits/(Pixel*Frame) : 2.365
Stream size : 798 KiB (0%)
Title : Chapter Images
Language : English
Encoded date : UTC 2016-07-25 22:43:36
Tagged date : UTC 2016-07-25 22:43:36

Audio #1
ID : 2
Format : AAC
Format/Info : Advanced Audio Codec
Format profile : LC
Codec ID : 40
Duration : 1h 23mn
Bit rate mode : Variable
Bit rate : 126 Kbps
Maximum bit rate : 234 Kbps
Channel(s) : 2 channels
Channel positions : Front: L R
Sampling rate : 48.0 KHz
Compression mode : Lossy
Stream size : 75.0 MiB (5%)
Title : Russian Stereo
Language : Russian
Encoded date : UTC 2016-07-25 22:43:27
Tagged date : UTC 2016-07-25 22:43:32

Audio #2
ID : 3
Format : AAC
Format/Info : Advanced Audio Codec
Format profile : LC
Codec ID : 40
Duration : 1h 23mn
Bit rate mode : Variable
Bit rate : 126 Kbps
Maximum bit rate : 197 Kbps
Channel(s) : 2 channels
Channel positions : Front: L R
Sampling rate : 48.0 KHz
Compression mode : Lossy
Stream size : 74.9 MiB (5%)
Title : English Stereo
Language : English
Encoded date : UTC 2016-07-25 22:43:27
Tagged date : UTC 2016-07-25 22:43:32

Text #1
ID : 4
Format : Timed Text
Muxing mode : sbtl
Codec ID : tx3g
Duration : 1h 16mn
Bit rate mode : Variable
Bit rate : 3 bps
Stream size : 1.91 KiB (0%)
Title : Russian forced
Language : Russian
Encoded date : UTC 2016-07-25 22:43:27
Tagged date : UTC 2016-07-25 22:43:29

Text #2
ID : 5
Format : Timed Text
Muxing mode : sbtl
Codec ID : tx3g
Duration : 1h 22mn
Bit rate mode : Variable
Bit rate : 109 bps
Stream size : 66.0 KiB (0%)
Title : Russian full
Language : Russian
Encoded date : UTC 2016-07-25 22:43:27
Tagged date : UTC 2016-07-25 22:43:29

Text #3
ID : 6
Format : Timed Text
Muxing mode : sbtl
Codec ID : tx3g
Duration : 1h 22mn
Bit rate mode : Variable
Bit rate : 63 bps
Stream size : 38.3 KiB (0%)
Title : English full
Language : English
Encoded date : UTC 2016-07-25 22:43:27
Tagged date : UTC 2016-07-25 22:43:29

Menu #1
00:00:00.000 : 00:00:00.000
00:06:54.414 : 00:06:54.331
00:11:01.077 : 00:11:00.994
00:16:25.818 : 00:16:25.735
00:21:37.713 : 00:21:37.630
00:26:43.811 : 00:26:43.727
00:31:46.947 : 00:31:46.863
00:36:48.790 : 00:36:48.706
00:41:57.140 : 00:41:57.056
00:46:55.062 : 00:46:54.979
00:52:19.678 : 00:52:19.595
00:57:28.570 : 00:57:28.487
01:01:27.934 : 01:01:27.851
01:06:16.222 : 01:06:16.139
01:11:52.183 : 01:11:52.099
01:16:25.956 : 01:16:25.873

Menu #2
ID : 7
Codec ID : text
Duration : 1h 23mn
Language : English
Encoded date : UTC 2016-07-25 22:43:32
Tagged date : UTC 2016-07-25 22:43:32
Bit rate mode : CBR
00:00:00.000 : 00:00:00.000
00:06:54.414 : 00:06:54.331
00:11:01.077 : 00:11:00.994
00:16:25.818 : 00:16:25.735
00:21:37.713 : 00:21:37.630
00:26:43.811 : 00:26:43.727
00:31:46.947 : 00:31:46.863
00:36:48.790 : 00:36:48.706
00:41:57.140 : 00:41:57.056
00:46:55.062 : 00:46:54.979
00:52:19.678 : 00:52:19.595
00:57:28.570 : 00:57:28.487
01:01:27.934 : 01:01:27.851
01:06:16.222 : 01:06:16.139
01:11:52.183 : 01:11:52.099
01:16:25.956 : 01:16:25.873

x264 лог

Код:

x264 [info]: frame I:1717  Avg QP:14.78  size: 73330
x264 [info]: frame P:32424 Avg QP:17.74  size: 20741
x264 [info]: frame B:85547 Avg QP:19.62  size:  6704
x264 [info]: consecutive B-frames:  5.8%  6.1% 11.2% 33.3% 16.1% 21.5%  6.1%
x264 [info]: mb I  I16..4: 11.3% 59.9% 28.8%
x264 [info]: mb P  I16..4:  2.7% 12.6%  4.2%  P16..4: 32.7% 22.0% 12.9%  0.0%  0.0%    skip:12.7%
x264 [info]: mb B  I16..4:  0.2%  1.4%  0.7%  B16..8: 40.5% 10.4%  3.2%  direct: 3.8%  skip:39.8%  L0:42.9% L1:46.7% BI:10.3%
x264 [info]: 8x8 transform intra:63.1% inter:70.6%
x264 [info]: coded y,uvDC,uvAC intra: 82.3% 81.4% 55.3% inter: 25.7% 19.8% 3.6%
x264 [info]: i16 v,h,dc,p: 22% 26%  5% 47%
x264 [info]: i8 v,h,dc,ddl,ddr,vr,hd,vl,hu:  9%  9%  4% 10% 14% 14% 15% 12% 13%
x264 [info]: i4 v,h,dc,ddl,ddr,vr,hd,vl,hu:  9% 11%  2%  9% 15% 14% 15% 11% 14%
x264 [info]: i8c dc,h,v,p: 37% 26% 19% 17%
x264 [info]: Weighted P-Frames: Y:2.9% UV:1.6%
x264 [info]: ref P L0: 54.1% 13.6% 13.1%  6.0%  3.9%  3.4%  2.4%  1.7%  1.4%  0.3%  0.0%
x264 [info]: ref B L0: 79.7%  9.4%  4.9%  2.2%  1.7%  1.2%  0.7%  0.3%
x264 [info]: ref B L1: 92.6%  7.4%
x264 [info]: kb/s:2198.52

Скриншоты:





Релиз подготовлен для просмотра на Apple TV, iPad, iPhone, iPod Touch.
Для просмотра данного релиза на компьютере с ОС Windows рекомендуется использовать VLC media player

Смотреть Online

http://moonwalk.cc/video/9791e64016cbc794/iframe
Детали торрента:
Название:Братья из Гримсби / Grimsby (2016) BDRip [576p] iPad
Дата добавления:26 Июл 2016 02:18:59
Размер:1,43 GB
Раздают:
Качают:0
Форум:Зарубежное видео для устройств Apple

All rights reserved © 2015-2018