TORRENTS43.XYZ

Скачать Беременность / Embarazados (2016) BDRip [H.264/1080p] [SP / EN Sub]


Беременность / Embarazados (2016) BDRip [H.264/1080p] [SP / EN Sub]
Производство: Испания, Audiovisuales del Monte S.L., Kowalski Films, Lanube Peliculas, Telefonica Studios, Teoponte P.C.
Жанр: Комедия

Режиссер: Хуана Масиас
Актеры: Пако Леон ,Александра Хименес, Альберто Амарилья, Эрнесто Севилья, Айноа Айербе, Иньяки Фонт, Гойсальде Нуньес, Карра Элехальде, Белен Лопес ...

Описание:
Это кажется простым : яйцо + сперма = один эмбрион. Но если вашей спермы " мало, расплывчата и ненормальна" и у вашей женщины менопауза в возрасте 37 лет, вещи начинают становиться сложнее.



Продолжительность: 01:44:23
Качество видео: BDRip
Перевод: Отсутствует
Язык озвучки: Испанский
Язык субтитров: Английский
Вид субтитров: Вшитые, отключаемые
Реклама: остутствует

Видео: AVC/H.264, 1920*808, ~8985 Кбит/сек
Аудио: DTS, 6 ch, 1509 kbps, CBR

Mediainfo:

Код:

Общее
Уникальный идентификатор                 : 173275140147970616783539372162620580410 (0x825B93FE8D020D9FB324B4C2B897E23A)
Полное имя                               : we.are.pregnant.2016.1080p.BDRip.x264y.mkv
Формат                                   : Matroska
Версия формата                           : Version 4 / Version 2
Размер файла                             : 7,65 Гбайт
Продолжительность                        : 1 ч. 44 м.
Общий поток                              : 10,5 Мбит/сек
Дата кодирования                         : UTC 2016-06-09 00:18:03
Программа кодирования                    : mkvmerge v8.3.0 ('Over the Horizon') 64bit
Библиотека кодирования                   : libebml v1.3.1 + libmatroska v1.4.2

Видео
Идентификатор                            : 1
Формат                                   : AVC
Формат/Информация                        : Advanced Video Codec
Профиль формата                          : High@L4.1
Параметр CABAC формата                   : Да
Параметр ReFrames формата                : 5 кадров
Идентификатор кодека                     : V_MPEG4/ISO/AVC
Продолжительность                        : 1 ч. 44 м.
Битрейт                                  : 8985 Кбит/сек
Ширина                                   : 1920 пикселей
Высота                                   : 808 пикселей
Соотношение сторон                       : 2,40:1
Режим частоты кадров                     : Постоянный
Частота кадров                           : 24,000 кадра/сек
Цветовое пространство                    : YUV
Субдискретизация насыщенности            : 4:2:0
Битовая глубина                          : 8 бит
Тип развёртки                            : Прогрессивная
Бит/(Пиксели*Кадры)                      : 0.241
Размер потока                            : 6,55 Гбайт (86%)
Библиотека кодирования                   : x264 core 148 r2692 64f4e24
Настройки программы                      : cabac=1 / ref=5 / deblock=1:0:0 / analyse=0x3:0x133 / me=umh / subme=9 / psy=1 / psy_rd=1.00:0.00 / mixed_ref=1 / me_range=16 / chroma_me=1 / trellis=1 / 8x8dct=1 / cqm=0 / deadzone=21,11 / fast_pskip=0 / chroma_qp_offset=-2 / threads=12 / lookahead_threads=1 / sliced_threads=0 / nr=0 / decimate=1 / interlaced=0 / bluray_compat=0 / constrained_intra=0 / bframes=3 / b_pyramid=2 / b_adapt=2 / b_bias=0 / direct=3 / weightb=1 / open_gop=0 / weightp=2 / keyint=250 / keyint_min=23 / scenecut=40 / intra_refresh=0 / rc_lookahead=50 / rc=2pass / mbtree=1 / bitrate=8985 / ratetol=1.0 / qcomp=0.60 / qpmin=0 / qpmax=69 / qpstep=4 / cplxblur=20.0 / qblur=0.5 / ip_ratio=1.40 / aq=1:1.00
Язык                                     : English
Default                                  : Да
Forced                                   : Нет

Аудио
Идентификатор                            : 2
Формат                                   : DTS
Формат/Информация                        : Digital Theater Systems
Режим                                    : 16
Параметр Endianness формата              : Big
Идентификатор кодека                     : A_DTS
Продолжительность                        : 1 ч. 44 м.
Вид битрейта                             : Постоянный
Битрейт                                  : 1509 Кбит/сек
Каналы                                   : 6 каналов
Расположение каналов                     : Front: L C R, Side: L R, LFE
Частота                                  : 48,0 КГц
Частота кадров                           : 93,750 кадра/сек (512 spf)
Битовая глубина                          : 24 бит
Метод сжатия                             : С потерями
Размер потока                            : 1,10 Гбайт (14%)
Язык                                     : Spanish
Default                                  : Да
Forced                                   : Нет

Текст
Идентификатор                            : 3
Формат                                   : UTF-8
Идентификатор кодека                     : S_TEXT/UTF8
Идентификатор кодека/Информация          : UTF-8 Plain Text
Продолжительность                        : 1 ч. 38 м.
Битрейт                                  : 54 бит/сек
Count of elements                        : 1360
Размер потока                            : 39,2 Кбайт (0%)
Заголовок                                : forced
Язык                                     : English
Default                                  : Да
Forced                                   : Да

Меню
00:00:00.000                             : en:00:00:00.000
00:11:45.208                             : en:00:11:45.208
00:19:57.958                             : en:00:19:57.958
00:27:11.208                             : en:00:27:11.208
00:35:33.875                             : en:00:35:33.875
00:46:54.542                             : en:00:46:54.542
00:52:24.333                             : en:00:52:24.333
01:01:17.958                             : en:01:01:17.958
01:09:42.375                             : en:01:09:42.375
01:17:32.792                             : en:01:17:32.792
01:28:13.000                             : en:01:28:13.000
01:37:31.417                             : en:01:37:31.417
Скриншоты:


Смотреть Online

http://moonwalk.cc/video/76521f64bbc8c41b78988a01ee36ebe4/iframe
Детали торрента:
Название:Беременность / Embarazados (2016) BDRip [H.264/1080p] [SP / EN Sub]
Дата добавления:09 Июн 2016 19:54:20
Размер:7,65 GB
Раздают:
Качают:0
Форум:Фильмы в оригинале (HD)

All rights reserved © 2015-2018