TORRENTS43.XYZ

Скачать Stanley Turrentine - Hustlin' (1964) [FLAC|Lossless|tracks + .cue] <Hard Bop, Soul Jazz>


Stanley Turrentine - Hustlin' (1964) Remaster, 2014, Universal
Год: 2014
Год записи: 1964
Жанр: Hard Bop, Soul Jazz
Издание: Universal / Blue Note - UCCQ-5045
Продолжительность: 00:48:57

Кодек: FLAC (tracks+.cue)
Битрейт: Lossless
Источник (релизер): ruskaval
Страна-производитель диска: Japan
Наличие сканов в содержимом раздачи: да

Треклист:

01.Trouble (No. 2) [07:52]
02.Love Letters [07:40]
03.The Hustler [06:04]
04.Ladyfingers [06:26]
05.Something Happens To Me [06:17]
06.Goin' Home [07:07]
07.Trouble (No. 2) (alt. take) (bonus track) [07:33]

Отчёт EAC:

Код:

Exact Audio Copy V1.1 from 23. June 2015

EAC extraction logfile from 4. June 2016, 5:47

Stanley Turrentine / Hustlin'

Used drive  : HL-DT-STDVDRAM GP50NW41   Adapter: 1  ID: 0

Read mode               : Secure
Utilize accurate stream : Yes
Defeat audio cache      : Yes
Make use of C2 pointers : No

Read offset correction                      : 6
Overread into Lead-In and Lead-Out          : No
Fill up missing offset samples with silence : Yes
Delete leading and trailing silent blocks   : No
Null samples used in CRC calculations       : Yes
Used interface                              : Native Win32 interface for Win NT & 2000
Gap handling                                : Appended to previous track

Used output format              : User Defined Encoder
Selected bitrate                : 1024 kBit/s
Quality                         : High
Add ID3 tag                     : No
Command line compressor         : C:\Program Files (x86)\FLAC Frontend\tools\flac.exe
Additional command line options : -8 -V -T "ARTIST=%artist%" -T "TITLE=%title%" -T "ALBUM=%albumtitle%" -T "DATE=%year%" -T "TRACKNUMBER=%tracknr%" -T "TOTALTRACKS=%numtracks%" -T "GENRE=%genre%" -T "ALBUMARTIST=%albumartist%" -T "ALBUM ARTIST=%albumartist%" -T "COMMENT=EAC Secure Mode, Test & Copy, AccurateRip, FLAC -8" %source%

TOC of the extracted CD

     Track |   Start  |  Length  | Start sector | End sector
    ---------------------------------------------------------
        1  |  0:00.00 |  7:51.55 |         0    |    35379
        2  |  7:51.55 |  7:39.53 |     35380    |    69857
        3  | 15:31.33 |  6:03.64 |     69858    |    97146
        4  | 21:35.22 |  6:25.73 |     97147    |   126094
        5  | 28:01.20 |  6:16.03 |    126095    |   154297
        6  | 34:17.23 |  7:07.00 |    154298    |   186322
        7  | 41:24.23 |  7:32.42 |    186323    |   220264

Track  1

     Filename D:\_EAC\Stanley Turrentine - Hustlin' (1964) [FLAC] {UCCQ-5045}\01 - Trouble (No. 2).wav

     Pre-gap length  0:00:02.00

     Peak level 92.7 %
     Extraction speed 1.3 X
     Track quality 100.0 %
     Test CRC A8174A81
     Copy CRC A8174A81
     Track not present in AccurateRip database
     Copy OK

Track  2

     Filename D:\_EAC\Stanley Turrentine - Hustlin' (1964) [FLAC] {UCCQ-5045}\02 - Love Letters.wav

     Pre-gap length  0:00:02.29

     Peak level 97.1 %
     Extraction speed 1.5 X
     Track quality 100.0 %
     Test CRC F8F0E542
     Copy CRC F8F0E542
     Track not present in AccurateRip database
     Copy OK

Track  3

     Filename D:\_EAC\Stanley Turrentine - Hustlin' (1964) [FLAC] {UCCQ-5045}\03 - The Hustler.wav

     Pre-gap length  0:00:02.28

     Peak level 98.8 %
     Extraction speed 1.5 X
     Track quality 99.9 %
     Test CRC 23A59263
     Copy CRC 23A59263
     Track not present in AccurateRip database
     Copy OK

Track  4

     Filename D:\_EAC\Stanley Turrentine - Hustlin' (1964) [FLAC] {UCCQ-5045}\04 - Ladyfingers.wav

     Pre-gap length  0:00:02.29

     Peak level 97.3 %
     Extraction speed 1.8 X
     Track quality 100.0 %
     Test CRC 1C951967
     Copy CRC 1C951967
     Track not present in AccurateRip database
     Copy OK

Track  5

     Filename D:\_EAC\Stanley Turrentine - Hustlin' (1964) [FLAC] {UCCQ-5045}\05 - Something Happens To Me.wav

     Pre-gap length  0:00:02.28

     Peak level 98.2 %
     Extraction speed 2.0 X
     Track quality 100.0 %
     Test CRC C12075DF
     Copy CRC C12075DF
     Track not present in AccurateRip database
     Copy OK

Track  6

     Filename D:\_EAC\Stanley Turrentine - Hustlin' (1964) [FLAC] {UCCQ-5045}\06 - Goin' Home.wav

     Pre-gap length  0:00:02.53

     Peak level 97.2 %
     Extraction speed 2.1 X
     Track quality 100.0 %
     Test CRC 676A6BB2
     Copy CRC 676A6BB2
     Track not present in AccurateRip database
     Copy OK

Track  7

     Filename D:\_EAC\Stanley Turrentine - Hustlin' (1964) [FLAC] {UCCQ-5045}\07 - Trouble (No. 2) (alt. take) (bonus track).wav

     Pre-gap length  0:00:03.01

     Peak level 98.4 %
     Extraction speed 2.3 X
     Track quality 100.0 %
     Test CRC 139E504C
     Copy CRC 139E504C
     Track not present in AccurateRip database
     Copy OK

None of the tracks are present in the AccurateRip database

No errors occurred

End of status report

==== Log checksum 803CCB026C77B7AD41F6C9655F89E42E0AA06EBB6DE79B7D1B36E4755136376C ====

Cue Sheet (.cue):

Код:

REM GENRE Jazz
REM DATE 1964
REM DISCID 680B7807
REM COMMENT "ExactAudioCopy v1.1"
PERFORMER "Stanley Turrentine"
TITLE "Hustlin'"
FILE "01 - Trouble (No. 2).wav" WAVE
  TRACK 01 AUDIO
    TITLE "Trouble (No. 2)"
    PERFORMER "Stanley Turrentine"
    INDEX 01 00:00:00
  TRACK 02 AUDIO
    TITLE "Love Letters"
    PERFORMER "Stanley Turrentine"
    INDEX 00 07:49:26
FILE "02 - Love Letters.wav" WAVE
    INDEX 01 00:00:00
  TRACK 03 AUDIO
    TITLE "The Hustler"
    PERFORMER "Stanley Turrentine"
    INDEX 00 07:37:25
FILE "03 - The Hustler.wav" WAVE
    INDEX 01 00:00:00
  TRACK 04 AUDIO
    TITLE "Ladyfingers"
    PERFORMER "Stanley Turrentine"
    INDEX 00 06:01:35
FILE "04 - Ladyfingers.wav" WAVE
    INDEX 01 00:00:00
  TRACK 05 AUDIO
    TITLE "Something Happens To Me"
    PERFORMER "Stanley Turrentine"
    INDEX 00 06:23:45
FILE "05 - Something Happens To Me.wav" WAVE
    INDEX 01 00:00:00
  TRACK 06 AUDIO
    TITLE "Goin' Home"
    PERFORMER "Stanley Turrentine"
    INDEX 00 06:13:25
FILE "06 - Goin' Home.wav" WAVE
    INDEX 01 00:00:00
  TRACK 07 AUDIO
    TITLE "Trouble (No. 2) (alt. take) (bonus track)"
    PERFORMER "Stanley Turrentine"
    INDEX 00 07:03:74
FILE "07 - Trouble (No. 2) (alt. take) (bonus track).wav" WAVE
    INDEX 01 00:00:00

Отчёт auCDtect Task manager:

Код:

-----------------------

DON'T MODIFY THIS FILE

-----------------------

PERFORMER: auCDtect Task Manager, ver. 1.6.0 RC1 build 1.6.0.1
Copyright (c) 2008-2010 y-soft. All rights reserved
http://y-soft.org

ANALYZER: auCDtect: CD records authenticity detector, version 0.8.2
Copyright (c) 2004 Oleg Berngardt. All rights reserved.
Copyright (c) 2004 Alexander Djourik. All rights reserved.

FILE: 07 - Trouble (No. 2) (alt. take) (bonus track).flac
  Size: 49241335 Hash: 8CC01DFE82FEC4531318B30917984130 Accuracy: -m0
  Conclusion: CDDA 100%
  Signature: 81B03314A3F2943A52E7D0C8F089358270C9F4AE
FILE: 06 - Goin' Home.flac
  Size: 45595381 Hash: 3B030845CF4B0C7A5CACEBABE6EB3E71 Accuracy: -m0
  Conclusion: CDDA 100%
  Signature: 0A4BD0A7CBB6F721177CBA5FB2B3C32132ED7EB9
FILE: 05 - Something Happens To Me.flac
  Size: 40894079 Hash: 6B5AAD10886E1F0EDA0DDE354D0FA148 Accuracy: -m0
  Conclusion: CDDA 100%
  Signature: 4667614112F577259E50C0919071973EA4A30781
FILE: 04 - Ladyfingers.flac
  Size: 42079502 Hash: CD8C90413FFA35D22F02F1F8E78F2C09 Accuracy: -m0
  Conclusion: CDDA 100%
  Signature: 3206CA74D9BFFEDEEC88B3647BFE1777E47EA3B9
FILE: 03 - The Hustler.flac
  Size: 39642031 Hash: CF6F43C99ED5C0229E9C5A7F9F57C072 Accuracy: -m0
  Conclusion: CDDA 100%
  Signature: C17013441325483FABD6AEF014FE1B8C89E3028E
FILE: 02 - Love Letters.flac
  Size: 47389362 Hash: B5FAB17DF57AA6987ECF0199E158FEA4 Accuracy: -m0
  Conclusion: CDDA 100%
  Signature: 28BCC33A318E616AD2B037CE99DEA9E789789B93
FILE: 01 - Trouble (No. 2).flac
  Size: 52912797 Hash: 60FE464B2FAD18EC1381C6587575CB24 Accuracy: -m0
  Conclusion: CDDA 100%
  Signature: C0AB9ECF3CE12BD1F76E6EBAA6D18F9FCE9B5799

Состав

Stanley Turrentine – tenor saxophone
Shirley Scott – organ
Kenny Burrell – guitar
Bob Cranshaw – bass
Otis Finch – drums
Детали торрента:
Название:Stanley Turrentine - Hustlin' (1964) [FLAC|Lossless|tracks + .cue] <Hard Bop, Soul Jazz>
Дата добавления:07 Июн 2016 10:27:50
Размер:324 MB
Раздают:2
Качают:0
Форум:Jazz (Lossless)

All rights reserved © 2015-2018