TORRENTS43.XYZ

Скачать Знаменосцы Победы. Непризнанные герои (2016) IPTVRip


Знаменосцы Победы. Непризнанные герои (2016) IPTVRip
Телекомпания: Россия, ОАО «ТРК ВС РФ «ЗВЕЗДА»
Жанр: Документальный, война, история, биография

Режиссер: Сергей Мерзляков
Ведущий: Евгений Кириченко

Описание:
Каждый месяц начальник Центрального музея ВС РФ спускается в хранилище знаменного фонда. Инструкция предписывает лично проверять состояние одно из 30 тысяч боевых знамен, которые здесь хранятся. Покрытый пороховой гарью флаг сшитый из кусков красного сатина раньше был музейным экспонатом, но теперь он национальная реликвия. Чтобы навсегда сохранить его для будущих поколений знамя закрыто герметичным стеклянным саркофагом защищающим от перепадов влажности и температур. Из школьных учебников мы знаем, что знамя Победы над поверженным Берлином подняли разведчики 765-го стрелкового полка Егоров и Кантария. Это их знамя, но спустя годы выяснилось, что на самом деле над Рейхстагом развивалось несколько десятков знамен и первыми туда ворвались совсем другие люди, но свой подвиг они вынуждены были скрывать всю жизнь.
В первые майские дни 45-го знаменосцами Победы называли совершенно других людей. Речь идет о группе разведчиков 674-го полка, которую с разрешения маршала Жукова снимал известный кинорежиссер Роман Кармен. Перед объективом камеры на крыше рейхстага кумачовое полотнище разматывал молоденький солдат Гриша Булатов. Почему же слава досталась другим? Кому понадобилось переписывать историю штурма?
Ответ на эти вопросы кроется в документах 1-го Белорусского фронта в Красногорском киноархиве, а также в воспоминаниях свидетелей этого подвига – участников штурма рейхстага, которых удалось разыскать автору фильма, военному журналисту Евгению Кириченко. Спустя семь десятилетий после Победы забытый подвиг знаменосцев возвращается из небытия…

Релиз от: alf62

Продолжительность: 00:39:29
Качество видео: IPTVRip

Видео: Xvid, 720х400, ~1435 Kbps
Аудио: MP3, 2 ch, 192 Kbps, CBR

Mediainfo:

Код:

наменосцы.Победы.Непризнанные.герои.2016.XviD.IPTVRip.avi
Формат                                   : AVI
Формат/Информация                        : Audio Video Interleave
Размер файла                             : 462 Мбайт
Продолжительность                        : 39 м.
Общий поток                              : 1637 Кбит/сек
Программа кодирования                    : VirtualDubMod 1.5.10.3 | www.virtualdub-fr.org || (build 2550/release)
Библиотека кодирования                   : VirtualDubMod build 2550/release

Видео
Идентификатор                            : 0
Формат                                   : MPEG-4 Visual
Профиль формата                          : Advanced Simple@L5
Параметр BVOP формата                    : 2
Параметр QPel формата                    : Нет
Параметр GMC формата                     : Без точки перехода
Параметр матрицы формата                 : Default (MPEG)
Идентификатор кодека                     : XVID
Идентификатор кодека/Подсказка           : XviD
Продолжительность                        : 39 м.
Битрейт                                  : 1435 Кбит/сек
Ширина                                   : 720 пикселей
Высота                                   : 400 пикселей
Соотношение сторон                       : 16:9
Частота кадров                           : 25,000 кадров/сек
Цветовое пространство                    : YUV
Субдискретизация насыщенности            : 4:2:0
Битовая глубина                          : 8 бит
Тип развёртки                            : Прогрессивная
Метод сжатия                             : С потерями
Бит/(Пиксели*Кадры)                      : 0.199
Размер потока                            : 405 Мбайт (88%)
Библиотека кодирования                   : XviD 73

Аудио
Идентификатор                            : 1
Формат                                   : MPEG Audio
Версия формата                           : Version 1
Профиль формата                          : Layer 3
Идентификатор кодека                     : 55
Идентификатор кодека/Подсказка           : MP3
Продолжительность                        : 39 м.
Вид битрейта                             : Постоянный
Битрейт                                  : 192 Кбит/сек
Каналы                                   : 2 канала
Частота                                  : 48,0 КГц
Метод сжатия                             : С потерями
Размер потока                            : 54,2 Мбайт (12%)
Выравнивание                             : Соединение по промежуткам
Продолжительность промежутка             : 40  мс. (1,00 видеокадр)
Время предзагрузки промежутка            : 504  мс.
Библиотека кодирования                   : LAME3.99r
Настройки программы                      : -m s -V 4 -q 0 -lowpass 18.6 -b 192
Скриншоты:

Дополнительные скриншоты:





Детали торрента:
Название:Знаменосцы Победы. Непризнанные герои (2016) IPTVRip
Дата добавления:13 Май 2016 15:39:44
Размер:462 MB
Раздают:
Качают:0
Форум:Вторая Мировая война

All rights reserved © 2015-2018