TORRENTS43.XYZ

Скачать Орел и решка. Кругосветка (2016.05.09) SATRip (сезон 12: Дакка)


Орел и решка. Кругосветка (2016.05.09) SATRip (сезон 12: Дакка)
Телекомпания: Пятница
Жанр: Реалити-шоу, путешествия, география, познавательный

Ведущий: Регина Тодоренко и Леся Никитюк

Описание:
В 12-м сезоне трэвел-шоу «Орел и решка» отправляется в настоящее путешествие вокруг света! Впереди 40 стран и 270 дней пути от Гринвича до Гринвича без права возвращаться домой! Восемь человек - восемь характеров и восемь чемоданов! И никто из них теперь не спрячется за камерой. Теперь все участники на виду! Как работает съемочная группа, как отдыхает, с какими проблемами сталкивается, как их решает.

Релиз от: Thunder
Продолжительность: ~ 00:51:44
Качество видео: SATRip
Субтитры: Отсутствуют

Видео: MPEG4, XviD, 720x400 (16:9), 25.000 fps, 1 598 Kbps (0.222 bit/pixel)
Аудио: AC-3, 48.0 KHz, 2 ch, 128 Kbps, CBR

Mediainfo:

Код:

Формат                                   : AVI
Формат/Информация                        : Audio Video Interleave
Размер файла                             : 642 Мбайт
Продолжительность                        : 51 м.
Общий поток                              : 1735 Кбит/сек
Название фильма                          : Dhaka
Режиссёр                                 : SATRip by Thunder
Программа кодирования                    : VirtualDubMod 1.5.10.3 | www.virtualdub-fr.org || (build 2550/release)
Формат оригинала/Имя                     : Documentary

Видео
Идентификатор                            : 0
Формат                                   : MPEG-4 Visual
Профиль формата                          : Advanced Simple@L5
Параметр BVOP формата                    : 1
Параметр QPel формата                    : Нет
Параметр GMC формата                     : Без точки перехода
Параметр матрицы формата                 : Default (H.263)
Идентификатор кодека                     : XVID
Идентификатор кодека/Подсказка           : XviD
Продолжительность                        : 51 м.
Битрейт                                  : 1598 Кбит/сек
Ширина                                   : 720 пикселей
Высота                                   : 400 пикселей
Соотношение сторон                       : 16:9
Частота кадров                           : 25,000 кадров/сек
Цветовое пространство                    : YUV
Субдискретизация насыщенности            : 4:2:0
Битовая глубина                          : 8 бит
Тип развёртки                            : Прогрессивная
Метод сжатия                             : С потерями
Бит/(Пиксели*Кадры)                      : 0.222
Размер потока                            : 591 Мбайт (92%)
Библиотека кодирования                   : XviD 1.2.1 (UTC 2008-12-04)

Аудио
Идентификатор                            : 1
Формат                                   : AC-3
Формат/Информация                        : Audio Coding 3
Расширение режима                        : CM (complete main)
Параметр Endianness формата              : Big
Идентификатор кодека                     : 2000
Продолжительность                        : 51 м.
Вид битрейта                             : Постоянный
Битрейт                                  : 128 Кбит/сек
Каналы                                   : 2 канала
Расположение каналов                     : Front: L R
Частота                                  : 48,0 КГц
Битовая глубина                          : 16 бит
Метод сжатия                             : С потерями
Размер потока                            : 47,4 Мбайт (7%)
Выравнивание                             : Разделение по промежуткам
Продолжительность промежутка             : 40  мс. (1,00 видеокадр)
Время предзагрузки промежутка            : 500  мс.
 
Скриншоты:


Все одноименные релизы в Клубе
Детали торрента:
Название:Орел и решка. Кругосветка (2016.05.09) SATRip (сезон 12: Дакка)
Дата добавления:09 Май 2016 22:28:50
Размер:642 MB
Раздают:1
Качают:0
Форум:Клуб кинопутешествий

All rights reserved © 2015-2018